  0
SECTION
  2
HEADER
  9
$ACADVER
  1
AC1006
  9
$DWGCODEPAGE
  3
ansi_950
  9
$INSBASE
 10
0.0
 20
0.0
 30
0.0
  9
$EXTMIN
 10
-0.0170885399184044
 20
-0.0115957949449239
  9
$EXTMAX
 10
560.0170911476214
 20
380.0115975644574
  9
$LIMMIN
 10
0.0
 20
0.0
  9
$LIMMAX
 10
420.0
 20
297.0
  9
$ORTHOMODE
 70
     0
  9
$REGENMODE
 70
     1
  9
$FILLMODE
 70
     1
  9
$QTEXTMODE
 70
     0
  9
$MIRRTEXT
 70
     0
  9
$DRAGMODE
 70
     2
  9
$LTSCALE
 40
1.0
  9
$OSMODE
 70
    37
  9
$ATTMODE
 70
     1
  9
$TEXTSIZE
 40
2.5
  9
$TRACEWID
 40
1.0
  9
$TEXTSTYLE
  7
STANDARD
  9
$CLAYER
  8
CONTOUR
  9
$CELTYPE
  6
BYLAYER
  9
$CECOLOR
 62
   256
  9
$DIMSCALE
 40
2.0
  9
$DIMASZ
 40
3.5
  9
$DIMEXO
 40
1.2
  9
$DIMDLI
 40
0.38
  9
$DIMRND
 40
0.0
  9
$DIMDLE
 40
0.0
  9
$DIMEXE
 40
1.2
  9
$DIMTP
 40
0.0
  9
$DIMTM
 40
0.0
  9
$DIMTXT
 40
3.5
  9
$DIMCEN
 40
0.09
  9
$DIMTSZ
 40
0.0
  9
$DIMTOL
 70
     0
  9
$DIMLIM
 70
     0
  9
$DIMTIH
 70
     0
  9
$DIMTOH
 70
     0
  9
$DIMSE1
 70
     0
  9
$DIMSE2
 70
     0
  9
$DIMTAD
 70
     1
  9
$DIMZIN
 70
     8
  9
$DIMBLK
  1
OPEN30
  9
$DIMASO
 70
     1
  9
$DIMSHO
 70
     1
  9
$DIMPOST
  1

  9
$DIMAPOST
  1

  9
$DIMALT
 70
     0
  9
$DIMALTD
 70
     2
  9
$DIMALTF
 40
25.4
  9
$DIMLFAC
 40
1.0
  9
$DIMTOFL
 70
     1
  9
$DIMTVP
 40
0.0
  9
$DIMTIX
 70
     0
  9
$DIMSOXD
 70
     0
  9
$DIMSAH
 70
     0
  9
$DIMBLK1
  1

  9
$DIMBLK2
  1

  9
$LUNITS
 70
     2
  9
$LUPREC
 70
     4
  9
$SKETCHINC
 40
1.0
  9
$FILLETRAD
 40
0.0
  9
$AUNITS
 70
     0
  9
$AUPREC
 70
     0
  9
$MENU
  1
.
  9
$ELEVATION
 40
0.0
  9
$THICKNESS
 40
0.0
  9
$LIMCHECK
 70
     0
  9
$CHAMFERA
 40
0.75
  9
$CHAMFERB
 40
0.75
  9
$SKPOLY
 70
     0
  9
$TDCREATE
 40
2453952.378453414
  9
$TDUPDATE
 40
2460773.350931389
  9
$TDINDWG
 40
2.1934301273
  9
$TDUSRTIMER
 40
2.1934290394
  9
$USRTIMER
 70
     1
  9
$ANGBASE
 50
0.0
  9
$ANGDIR
 70
     0
  9
$PDMODE
 70
     3
  9
$PDSIZE
 40
0.0
  9
$PLINEWID
 40
0.0
  9
$COORDS
 70
     1
  9
$SPLFRAME
 70
     0
  9
$SPLINETYPE
 70
     6
  9
$SPLINESEGS
 70
     8
  9
$ATTDIA
 70
     0
  9
$ATTREQ
 70
     1
  9
$HANDLING
 70
     1
  9
$HANDSEED
  5
1202B
  9
$SURFTAB1
 70
     6
  9
$SURFTAB2
 70
     6
  9
$SURFTYPE
 70
     6
  9
$SURFU
 70
     6
  9
$SURFV
 70
     6
  9
$UCSNAME
  2

  9
$UCSORG
 10
0.0
 20
0.0
 30
0.0
  9
$UCSXDIR
 10
1.0
 20
0.0
 30
0.0
  9
$UCSYDIR
 10
0.0
 20
1.0
 30
0.0
  9
$USERI1
 70
     0
  9
$USERI2
 70
     0
  9
$USERI3
 70
     0
  9
$USERI4
 70
     0
  9
$USERI5
 70
     0
  9
$USERR1
 40
0.0
  9
$USERR2
 40
0.0
  9
$USERR3
 40
0.0
  9
$USERR4
 40
0.0
  9
$USERR5
 40
0.0
  9
$WORLDVIEW
 70
     1
  0
ENDSEC
  0
SECTION
  2
TABLES
  0
TABLE
  2
VPORT
 70
     1
  0
VPORT
  2
*ACTIVE
 70
     0
 10
0.0
 20
0.0
 11
1.0
 21
1.0
 12
292.6264885838447
 22
190.0000059724774
 13
0.0
 23
0.0
 14
10.0
 24
10.0
 15
10.0
 25
10.0
 16
0.0
 26
0.0
 36
1.0
 17
0.0
 27
0.0
 37
0.0
 40
382.9571847154581
 41
2.227157360406091
 42
50.0
 43
0.0
 44
0.0
 50
0.0
 51
0.0
 71
     0
 72
 20000
 73
     1
 74
     3
 75
     0
 76
     0
 77
     0
 78
     0
  0
ENDTAB
  0
TABLE
  2
LTYPE
 70
    20
  0
LTYPE
  2
CONTINUOUS
 70
     0
  3
Solid line
 72
    65
 73
     0
 40
0.0
  0
LTYPE
  2
1
 70
     0
  3

 72
    65
 73
     5
 40
22.2
 49
12.0
 49
-1.0
 49
0.2
 49
-1.0
 49
8.0
  0
LTYPE
  2
CENTER2
 70
     0
  3
Center (.5x) ___ _ ___ _ ___ _ ___ _ ___ _ ___
 72
    65
 73
     4
 40
28.575
 49
19.05
 49
-3.175
 49
3.175
 49
-3.175
  0
LTYPE
  2
HIDDEN
 70
     0
  3
Hidden __ __ __ __ __ __ __ __ __ __ __ __ __ _
 72
    65
 73
     2
 40
9.524999999999999
 49
6.35
 49
-3.175
  0
LTYPE
  2
CENTERX2
 70
     0
  3
Center (2x) ________  __  ________  __  _____
 72
    65
 73
     4
 40
101.6
 49
63.5
 49
-12.7
 49
12.7
 49
-12.7
  0
LTYPE
  2
HIDDEN2
 70
     0
  3
Hidden (.5x) _ _ _ _ _ _ _ _ _ _ _ _ _ _ _ _ _
 72
    65
 73
     2
 40
4.762499999999999
 49
3.175
 49
-1.5875
  0
LTYPE
  2
DIVIDE
 70
     0
  3
Divide ____ . . ____ . . ____ . . ____ . . ____
 72
    65
 73
     6
 40
31.75
 49
12.7
 49
-6.35
 49
0.0
 49
-6.35
 49
0.0
 49
-6.35
  0
LTYPE
  2
CENTER
 70
     0
  3
Center ____ _ ____ _ ____ _ ____ _ ____ _ ____
 72
    65
 73
     4
 40
50.8
 49
31.75
 49
-6.35
 49
6.35
 49
-6.35
  0
LTYPE
  2
DASHEDX2
 70
     0
  3
Dashed (2x) ____  ____  ____  ____  ____  ___
 72
    65
 73
     2
 40
38.09999999999999
 49
25.4
 49
-12.7
  0
LTYPE
  2
PHANTOM2
 70
     0
  3
Phantom (.5x) ___ _ _ ___ _ _ ___ _ _ ___ _ _
 72
    65
 73
     6
 40
31.75
 49
15.875
 49
-3.175
 49
3.175
 49
-3.175
 49
3.175
 49
-3.175
  0
LTYPE
  2
AM_ISO02W050
 70
     0
  3
__ __ __ __ __ __ __ __ __ __ __ __ __ __ __
 72
    65
 73
     2
 40
7.5
 49
6.0
 49
-1.5
  0
LTYPE
  2
AM_ISO08W050
 70
     0
  3
____ . ____ . ____ . ____ . ____ . ____ . ____
 72
    65
 73
     4
 40
18.0
 49
12.0
 49
-1.5
 49
3.0
 49
-1.5
  0
LTYPE
  2
AM_ISO09W050
 70
     0
  3
_____ . . _____ . . _____ . . ____ .. ____
 72
    65
 73
     6
 40
22.5
 49
12.0
 49
-1.5
 49
3.0
 49
-1.5
 49
3.0
 49
-1.5
  0
LTYPE
  2
AMCONSTR
 70
     0
  3
_______________________
 72
    65
 73
     2
 40
9999.0
 49
9999.0
 49
0.0
  0
LTYPE
  2
AM_ISO08W050X2
 70
     0
  3
__ . __ . __ . __ . __ . __
 72
    65
 73
     4
 40
9.0
 49
6.0
 49
-0.75
 49
1.5
 49
-0.75
  0
LTYPE
  2
AM_ISO02W050X2
 70
     0
  3
 _ _ _ _ _ _ _ _ _ _ _ _
 72
    65
 73
     2
 40
3.75
 49
3.0
 49
-0.75
  0
LTYPE
  2
AMZIGZAG
 70
     0
  3
/\/-/\/-/\/-/\/-/\/-/\/
 72
    65
 73
     2
 40
11.0001
 49
0.0001
 49
-11.0
  0
LTYPE
  2
ACISOWELD
 70
     0
  3
_ _ _ _ _
 72
    65
 73
     2
 40
2.0
 49
2.0
 49
-1.0
  0
LTYPE
  2
ACISOTGB
 70
     0
  3
__ . . __ . .
 72
    65
 73
     6
 40
9.0
 49
4.0
 49
-1.0
 49
1.0
 49
-1.0
 49
1.0
 49
-1.0
  0
LTYPE
  2
ACISOTGL
 70
     0
  3
_ _ _ _ _
 72
    65
 73
     2
 40
3.0
 49
2.0
 49
-1.0
  0
ENDTAB
  0
TABLE
  2
LAYER
 70
    12
  0
LAYER
  2
0
 70
     0
 62
     7
  6
CONTINUOUS
  0
LAYER
  2
MARK
 70
     0
 62
     6
  6
CONTINUOUS
  0
LAYER
  2
CENTER
 70
     0
 62
     1
  6
CENTER2
  0
LAYER
  2
DEFPOINTS
 70
     0
 62
     7
  6
CONTINUOUS
  0
LAYER
  2
FRAME
 70
     0
 62
     9
  6
CONTINUOUS
  0
LAYER
  2
DIM
 70
     0
 62
     3
  6
CONTINUOUS
  0
LAYER
  2
CONTOUR
 70
     0
 62
     2
  6
CONTINUOUS
  0
LAYER
  2
BOWEL
 70
     0
 62
     4
  6
HIDDEN2
  0
LAYER
  2
SECTION
 70
     0
 62
     5
  6
CONTINUOUS
  0
LAYER
  2
BOWLE
 70
     0
 62
     4
  6
HIDDEN
  0
LAYER
  2
PV-4A7
 70
     2
 62
     7
  6
CONTINUOUS
  0
LAYER
  2
PV-8D6D
 70
     2
 62
     7
  6
CONTINUOUS
  0
ENDTAB
  0
TABLE
  2
STYLE
 70
     9
  0
STYLE
  2
STANDARD
 70
     0
 40
0.0
 41
1.0
 50
0.0
 71
     0
 42
2.5
  3
txt.shx
  4
bigfont.shx
  0
STYLE
  2

 70
     1
 40
0.0
 41
1.0
 50
0.0
 71
     0
 42
2.5
  3
ltypeshp.shx
  4

  0
STYLE
  2
TW
 70
     0
 40
0.0
 41
1.0
 50
0.0
 71
     0
 42
1.0
  3
txt.shx
  4
chineset.shx
  0
STYLE
  2
CN
 70
     0
 40
0.0
 41
1.0
 50
0.0
 71
     0
 42
6.0
  3
txt.shx
  4
gbcbig.shx
  0
STYLE
  2
LKK
 70
     0
 40
50.0
 41
1.5
 50
0.0
 71
     0
 42
50.0
  3
MS PGothic.ttf
  4

  0
STYLE
  2
JL
 70
     0
 40
10.0
 41
0.5
 50
0.0
 71
     0
 42
5.0
  3
MS Mincho.ttf
  4

  0
STYLE
  2

 70
     1
 40
0.0
 41
1.0
 50
0.0
 71
     0
 42
2.5
  3
genltshp.shx
  4

  0
STYLE
  2
ACISOTS
 70
     0
 40
1.0
 41
1.0
 50
0.0
 71
     0
 42
2.5
  3
isocp.shx
  4
chineset.shx
  0
STYLE
  2
ACISOGDT
 70
     0
 40
0.0
 41
1.0
 50
0.0
 71
     0
 42
2.5
  3
amgdt.shx
  4

  0
ENDTAB
  0
TABLE
  2
VIEW
 70
     0
  0
ENDTAB
  0
TABLE
  2
UCS
 70
     0
  0
ENDTAB
  0
ENDSEC
  0
SECTION
  2
BLOCKS
  0
BLOCK
  8
0
  2
_OPEN30
 70
     0
 10
0.0
 20
0.0
 30
0.0
  0
LINE
  5
87D
  8
0
  6
BYBLOCK
 62
     0
 10
-1.0
 20
0.26794919
 30
0.0
 11
0.0
 21
0.0
 31
0.0
  0
LINE
  5
87E
  8
0
  6
BYBLOCK
 62
     0
 10
0.0
 20
0.0
 30
0.0
 11
-1.0
 21
-0.26794919
 31
0.0
  0
LINE
  5
87F
  8
0
  6
BYBLOCK
 62
     0
 10
0.0
 20
0.0
 30
0.0
 11
-1.0
 21
0.0
 31
0.0
  0
ENDBLK
  8
0
  0
BLOCK
  8
0
  2
_OPEN90
 70
     0
 10
0.0
 20
0.0
 30
0.0
  0
LINE
  5
117A
  8
0
  6
BYBLOCK
 62
     0
 10
-0.5
 20
0.5
 30
0.0
 11
0.0
 21
0.0
 31
0.0
  0
LINE
  5
117B
  8
0
  6
BYBLOCK
 62
     0
 10
0.0
 20
0.0
 30
0.0
 11
-0.5
 21
-0.5
 31
0.0
  0
LINE
  5
117C
  8
0
  6
BYBLOCK
 62
     0
 10
0.0
 20
0.0
 30
0.0
 11
-1.0
 21
0.0
 31
0.0
  0
ENDBLK
  8
0
  0
BLOCK
  8
0
  2
*D3
 70
     1
 10
0.0
 20
0.0
 30
0.0
  0
LINE
  5
1180
  8
DIM
 10
1270.17087219829
 20
464.4741343012924
 30
0.0
 11
1276.757234129869
 21
464.4741343012924
 31
0.0
  0
LINE
  5
1181
  8
DIM
 10
1270.17087219829
 20
483.6741343012925
 30
0.0
 11
1276.757234129869
 21
483.6741343012925
 31
0.0
  0
LINE
  5
1182
  8
DIM
 62
     0
 10
1276.307234129869
 20
465.7741343012924
 30
0.0
 11
1276.307234129869
 21
482.3741343012925
 31
0.0
  0
INSERT
  5
1183
  8
DIM
 62
     0
  2
_OPEN30
 10
1276.307234129869
 20
464.4741343012924
 30
0.0
 41
1.3
 42
1.3
 43
1.3
 50
270.0
  0
INSERT
  5
1184
  8
DIM
 62
     0
  2
_OPEN30
 10
1276.307234129869
 20
483.6741343012925
 30
0.0
 41
1.3
 42
1.3
 43
1.3
 50
90.0
  0
TEXT
  5
1185
  8
DIM
  6
CONTINUOUS
 62
     3
 10
1275.640567463203
 20
472.2324676346259
 30
0.0
 40
1.3
  1
19,2
 50
90.0
  0
POINT
  5
1186
  8
DEFPOINTS
 62
     0
 10
1269.72087219829
 20
464.4741343012924
 30
0.0
  0
POINT
  5
1187
  8
DEFPOINTS
 62
     0
 10
1269.72087219829
 20
483.6741343012925
 30
0.0
  0
POINT
  5
1188
  8
DEFPOINTS
 62
     0
 10
1276.307234129869
 20
483.6741343012925
 30
0.0
  0
ENDBLK
  8
0
  0
BLOCK
  8
0
  2
*D4
 70
     1
 10
0.0
 20
0.0
 30
0.0
  0
LINE
  5
118C
  8
DIM
 62
     0
 10
1270.784187201349
 20
487.3063486850152
 30
0.0
 11
1266.217520534682
 21
487.3063486850152
 31
0.0
  0
LINE
  5
118D
  8
DIM
 62
     0
 10
1266.217520534682
 20
487.3063486850152
 30
0.0
 11
1259.61562292068
 21
478.306760436155
 31
0.0
  0
LINE
  5
118E
  8
DIM
 62
     0
 10
1253.227511399726
 20
469.5986015494646
 30
0.0
 11
1252.458572049981
 21
468.5503972390297
 31
0.0
  0
TEXT
  5
118F
  8
DIM
  6
CONTINUOUS
 62
     3
 10
1266.667520534682
 20
487.9730153516817
 30
0.0
 40
1.3
  1
\U+22058,2
  0
LINE
  5
1190
  8
DIM
 62
     0
 10
1253.99645074947
 20
470.6468058598995
 30
0.0
 11
1258.846683570936
 21
477.2585561257201
 31
0.0
  0
INSERT
  5
1191
  8
DIM
 62
     0
  2
_OPEN30
 10
1253.99645074947
 20
470.6468058598995
 30
0.0
 41
1.3
 42
1.3
 43
1.3
 50
53.73705699815667
  0
INSERT
  5
1192
  8
DIM
 62
     0
  2
_OPEN30
 10
1258.846683570936
 20
477.2585561257201
 30
0.0
 41
1.3
 42
1.3
 43
1.3
 50
233.7370569981567
  0
POINT
  5
1193
  8
DEFPOINTS
 62
     0
 10
1258.846683570936
 20
477.2585561257201
 30
0.0
  0
POINT
  5
1194
  8
DEFPOINTS
 62
     0
 10
1253.99645074947
 20
470.6468058598995
 30
0.0
  0
ENDBLK
  8
0
  0
BLOCK
  8
0
  2
*D5
 70
     1
 10
0.0
 20
0.0
 30
0.0
  0
LINE
  5
1198
  8
DIM
 10
1311.219809518235
 20
477.0732337661798
 30
0.0
 11
1305.9832142087
 21
477.0732337661798
 31
0.0
  0
LINE
  5
1199
  8
DIM
 10
1311.219809518236
 20
471.0732337661797
 30
0.0
 11
1305.9832142087
 21
471.0732337661797
 31
0.0
  0
LINE
  5
119A
  8
DIM
 62
     0
 10
1306.4332142087
 20
475.7732337661798
 30
0.0
 11
1306.4332142087
 21
472.3732337661797
 31
0.0
  0
INSERT
  5
119B
  8
DIM
 62
     0
  2
_OPEN30
 10
1306.4332142087
 20
477.0732337661798
 30
0.0
 41
1.3
 42
1.3
 43
1.3
 50
90.0
  0
INSERT
  5
119C
  8
DIM
 62
     0
  2
_OPEN30
 10
1306.4332142087
 20
471.0732337661797
 30
0.0
 41
1.3
 42
1.3
 43
1.3
 50
270.0
  0
TEXT
  5
119D
  8
DIM
  6
CONTINUOUS
 62
     3
 10
1305.9832142087
 20
473.6399004328466
 30
0.0
 40
1.3
  1
6
 50
90.0
  0
POINT
  5
119E
  8
DEFPOINTS
 62
     0
 10
1311.669809518236
 20
477.0732337661798
 30
0.0
  0
POINT
  5
119F
  8
DEFPOINTS
 62
     0
 10
1311.669809518236
 20
471.0732337661797
 30
0.0
  0
POINT
  5
11A0
  8
DEFPOINTS
 62
     0
 10
1306.4332142087
 20
471.0732337661797
 30
0.0
  0
ENDBLK
  8
0
  0
BLOCK
  8
0
  2
*D6
 70
     1
 10
0.0
 20
0.0
 30
0.0
  0
LINE
  5
11A4
  8
DIM
 10
1246.23569576056
 20
470.6232337661798
 30
0.0
 11
1246.23569576056
 21
461.3824606311954
 31
0.0
  0
LINE
  5
11A5
  8
DIM
 10
1248.23569576056
 20
465.0241343012925
 30
0.0
 11
1248.23569576056
 21
461.3824606311954
 31
0.0
  0
LINE
  5
11A6
  8
DIM
 62
     0
 10
1244.93569576056
 20
461.8324606311954
 30
0.0
 11
1243.63569576056
 21
461.8324606311954
 31
0.0
  0
LINE
  5
11A7
  8
DIM
 62
     0
 10
1249.53569576056
 20
461.8324606311954
 30
0.0
 11
1250.83569576056
 21
461.8324606311954
 31
0.0
  0
LINE
  5
11A8
  8
DIM
 62
     0
 10
1246.23569576056
 20
461.8324606311954
 30
0.0
 11
1248.23569576056
 21
461.8324606311954
 31
0.0
  0
INSERT
  5
11A9
  8
DIM
 62
     0
  2
_OPEN30
 10
1246.23569576056
 20
461.8324606311954
 30
0.0
 41
1.3
 42
1.3
 43
1.3
  0
INSERT
  5
11AA
  8
DIM
 62
     0
  2
_OPEN30
 10
1248.23569576056
 20
461.8324606311954
 30
0.0
 41
1.3
 42
1.3
 43
1.3
 50
180.0
  0
TEXT
  5
11AB
  8
DIM
  6
CONTINUOUS
 62
     3
 10
1246.802362427226
 20
462.2824606311954
 30
0.0
 40
1.3
  1
2
  0
POINT
  5
11AC
  8
DEFPOINTS
 62
     0
 10
1246.23569576056
 20
471.0732337661798
 30
0.0
  0
POINT
  5
11AD
  8
DEFPOINTS
 62
     0
 10
1248.23569576056
 20
465.4741343012925
 30
0.0
  0
POINT
  5
11AE
  8
DEFPOINTS
 62
     0
 10
1248.23569576056
 20
461.8324606311954
 30
0.0
  0
ENDBLK
  8
0
  0
BLOCK
  8
0
  2
*D7
 70
     1
 10
0.0
 20
0.0
 30
0.0
  0
LINE
  5
11B2
  8
DIM
 10
1248.23569576056
 20
465.0241343012925
 30
0.0
 11
1248.23569576056
 21
461.3824606311954
 31
0.0
  0
LINE
  5
11B3
  8
DIM
 10
1256.442630103144
 20
467.4277528840782
 30
0.0
 11
1256.442630103144
 21
461.3824606311954
 31
0.0
  0
LINE
  5
11B4
  8
DIM
 62
     0
 10
1249.53569576056
 20
461.8324606311954
 30
0.0
 11
1255.142630103144
 21
461.8324606311954
 31
0.0
  0
INSERT
  5
11B5
  8
DIM
 62
     0
  2
_OPEN30
 10
1248.23569576056
 20
461.8324606311954
 30
0.0
 41
1.3
 42
1.3
 43
1.3
 50
180.0
  0
INSERT
  5
11B6
  8
DIM
 62
     0
  2
_OPEN30
 10
1256.442630103144
 20
461.8324606311954
 30
0.0
 41
1.3
 42
1.3
 43
1.3
  0
TEXT
  5
11B7
  8
DIM
  6
CONTINUOUS
 62
     3
 10
1251.039162931852
 20
462.2824606311954
 30
0.0
 40
1.3
  1
8.2
  0
POINT
  5
11B8
  8
DEFPOINTS
 62
     0
 10
1248.23569576056
 20
465.4741343012925
 30
0.0
  0
POINT
  5
11B9
  8
DEFPOINTS
 62
     0
 10
1256.442630103144
 20
467.8777528840782
 30
0.0
  0
POINT
  5
11BA
  8
DEFPOINTS
 62
     0
 10
1256.442630103144
 20
461.8324606311954
 30
0.0
  0
ENDBLK
  8
0
  0
BLOCK
  8
0
  2
*D8
 70
     1
 10
0.0
 20
0.0
 30
0.0
  0
LINE
  5
11BE
  8
DIM
 10
1248.23569576056
 20
465.0241343012925
 30
0.0
 11
1248.23569576056
 21
458.4264137113017
 31
0.0
  0
LINE
  5
11BF
  8
DIM
 10
1270.72087219829
 20
465.0241343012924
 30
0.0
 11
1270.72087219829
 21
458.4264137113017
 31
0.0
  0
LINE
  5
11C0
  8
DIM
 62
     0
 10
1249.53569576056
 20
458.8764137113017
 30
0.0
 11
1269.42087219829
 21
458.8764137113017
 31
0.0
  0
INSERT
  5
11C1
  8
DIM
 62
     0
  2
_OPEN30
 10
1248.23569576056
 20
458.8764137113017
 30
0.0
 41
1.3
 42
1.3
 43
1.3
 50
180.0
  0
INSERT
  5
11C2
  8
DIM
 62
     0
  2
_OPEN30
 10
1270.72087219829
 20
458.8764137113017
 30
0.0
 41
1.3
 42
1.3
 43
1.3
  0
TEXT
  5
11C3
  8
DIM
  6
CONTINUOUS
 62
     3
 10
1257.528283979425
 20
459.3264137113017
 30
0.0
 40
1.3
  1
22.5
  0
POINT
  5
11C4
  8
DEFPOINTS
 62
     0
 10
1248.23569576056
 20
465.4741343012925
 30
0.0
  0
POINT
  5
11C5
  8
DEFPOINTS
 62
     0
 10
1270.72087219829
 20
465.4741343012924
 30
0.0
  0
POINT
  5
11C6
  8
DEFPOINTS
 62
     0
 10
1270.72087219829
 20
458.8764137113017
 30
0.0
  0
ENDBLK
  8
0
  0
BLOCK
  8
0
  2
*D9
 70
     1
 10
0.0
 20
0.0
 30
0.0
  0
LINE
  5
11CA
  8
DIM
 10
1318.669809518236
 20
464.022333231067
 30
0.0
 11
1318.669809518236
 21
458.4264137113017
 31
0.0
  0
LINE
  5
11CB
  8
DIM
 10
1320.669809518236
 20
464.022333231067
 30
0.0
 11
1320.669809518236
 21
458.4264137113017
 31
0.0
  0
LINE
  5
11CC
  8
DIM
 62
     0
 10
1317.369809518236
 20
458.8764137113017
 30
0.0
 11
1316.069809518236
 21
458.8764137113017
 31
0.0
  0
LINE
  5
11CD
  8
DIM
 62
     0
 10
1321.969809518236
 20
458.8764137113017
 30
0.0
 11
1323.269809518236
 21
458.8764137113017
 31
0.0
  0
LINE
  5
11CE
  8
DIM
 62
     0
 10
1318.669809518236
 20
458.8764137113017
 30
0.0
 11
1320.669809518236
 21
458.8764137113017
 31
0.0
  0
INSERT
  5
11CF
  8
DIM
 62
     0
  2
_OPEN30
 10
1318.669809518236
 20
458.8764137113017
 30
0.0
 41
1.3
 42
1.3
 43
1.3
  0
INSERT
  5
11D0
  8
DIM
 62
     0
  2
_OPEN30
 10
1320.669809518236
 20
458.8764137113017
 30
0.0
 41
1.3
 42
1.3
 43
1.3
 50
180.0
  0
TEXT
  5
11D1
  8
DIM
  6
CONTINUOUS
 62
     3
 10
1319.236476184902
 20
459.3264137113017
 30
0.0
 40
1.3
  1
2
  0
POINT
  5
11D2
  8
DEFPOINTS
 62
     0
 10
1318.669809518236
 20
464.472333231067
 30
0.0
  0
POINT
  5
11D3
  8
DEFPOINTS
 62
     0
 10
1320.669809518236
 20
464.472333231067
 30
0.0
  0
POINT
  5
11D4
  8
DEFPOINTS
 62
     0
 10
1320.669809518236
 20
458.8764137113017
 30
0.0
  0
ENDBLK
  8
0
  0
BLOCK
  8
0
  2
*D10
 70
     1
 10
0.0
 20
0.0
 30
0.0
  0
LINE
  5
11D8
  8
DIM
 10
1310.669809518236
 20
471.6232337661797
 30
0.0
 11
1310.669809518236
 21
458.4264137113017
 31
0.0
  0
LINE
  5
11D9
  8
DIM
 10
1318.669809518236
 20
464.022333231067
 30
0.0
 11
1318.669809518236
 21
458.4264137113017
 31
0.0
  0
LINE
  5
11DA
  8
DIM
 62
     0
 10
1311.969809518235
 20
458.8764137113017
 30
0.0
 11
1317.369809518236
 21
458.8764137113017
 31
0.0
  0
INSERT
  5
11DB
  8
DIM
 62
     0
  2
_OPEN30
 10
1310.669809518236
 20
458.8764137113017
 30
0.0
 41
1.3
 42
1.3
 43
1.3
 50
180.0
  0
INSERT
  5
11DC
  8
DIM
 62
     0
  2
_OPEN30
 10
1318.669809518236
 20
458.8764137113017
 30
0.0
 41
1.3
 42
1.3
 43
1.3
  0
TEXT
  5
11DD
  8
DIM
  6
CONTINUOUS
 62
     3
 10
1314.236476184902
 20
459.3264137113017
 30
0.0
 40
1.3
  1
8
  0
POINT
  5
11DE
  8
DEFPOINTS
 62
     0
 10
1310.669809518236
 20
472.0732337661797
 30
0.0
  0
POINT
  5
11DF
  8
DEFPOINTS
 62
     0
 10
1318.669809518236
 20
464.472333231067
 30
0.0
  0
POINT
  5
11E0
  8
DEFPOINTS
 62
     0
 10
1318.669809518236
 20
458.8764137113017
 30
0.0
  0
ENDBLK
  8
0
  0
BLOCK
  8
0
  2
A$C4DB7395D
 70
     0
 10
0.0
 20
0.0
 30
0.0
  0
POLYLINE
  5
11E4
  8
FRAME
 66
     1
 10
0.0
 20
0.0
 30
0.0
 70
     1
  0
VERTEX
  5
11FA9
  8
FRAME
 10
0.000000147753326
 20
0.0000000684494239
 30
0.0
  0
VERTEX
  5
11FAA
  8
FRAME
 10
139.8600001477535
 20
0.0000000684494239
 30
0.0
  0
VERTEX
  5
11FAB
  8
FRAME
 10
139.8600001477535
 20
94.90500006844934
 30
0.0
  0
VERTEX
  5
11FAC
  8
FRAME
 10
0.000000147753326
 20
94.90500006844934
 30
0.0
  0
SEQEND
  5
1201F
  8
FRAME
  0
TEXT
  5
11E5
  8
0
 10
118.4319921448719
 20
6.745688365742296
 30
0.0
 40
1.498499999999998
  1
\M+50088D面番號
  7
CN
  0
TEXT
  5
11E6
  8
0
 10
70.56945851206433
 20
19.47681026368736
 30
0.0
 40
1.498499999999998
  1
寸  法
  7
CN
  0
TEXT
  5
11E7
  8
0
 10
70.73875763579622
 20
22.14350143346672
 30
0.0
 40
0.9989999999999988
  1
JISB 0405(中級)
  7
CN
  0
TEXT
  5
11E8
  8
0
 10
118.4319921448719
 20
21.73068836574242
 30
0.0
 40
1.498499999999998
  1
\M+50099C   種
  7
CN
  0
TEXT
  5
11E9
  8
0
 10
106.8875860144444
 20
16.73568836574231
 30
0.0
 40
1.498499999999998
  1
尺度
  7
CN
  0
TEXT
  5
11EA
  8
0
 10
106.8875860144444
 20
21.73068836574231
 30
0.0
 40
1.498499999999998
  1
材質
  7
CN
  0
TEXT
  5
11EB
  8
0
 10
95.13240436483966
 20
11.74068836574241
 30
0.0
 40
1.498499999999998
  1
日付
  7
CN
  0
TEXT
  5
11EC
  8
0
 10
95.13240436483966
 20
16.73568836574231
 30
0.0
 40
1.498499999999998
  1
日付
  7
CN
  0
TEXT
  5
11ED
  8
0
 10
95.13240436483966
 20
21.73068836574231
 30
0.0
 40
1.498499999999998
  1
日付
  7
CN
  0
TEXT
  5
11EE
  8
0
 10
83.74155052909828
 20
21.73068836574242
 30
0.0
 40
1.498499999999998
  1
承認
  7
CN
  0
TEXT
  5
11EF
  8
0
 10
83.74155052909828
 20
16.73568836574231
 30
0.0
 40
1.498499999999998
  1
\M+50099z\M+50088D
  7
CN
  0
TEXT
  5
11F0
  8
0
 10
59.35572662903633
 20
1.750688365742178
 30
0.0
 40
1.498499999999998
  1
\M+50093�螏M+50094
  7
CN
  0
LINE
  5
11F1
  8
0
 10
43.84221741422198
 20
8.467590036566264
 30
0.0
 11
45.16051921244025
 21
6.184224342342702
 31
0.0
  0
LINE
  5
11F2
  8
0
 10
43.84221741422198
 20
8.467590036566264
 30
0.0
 11
42.52391561600348
 21
6.184224342342702
 31
0.0
  0
LINE
  5
11F3
  8
0
 10
42.52391561600348
 20
6.184224342342702
 30
0.0
 11
45.16051921244025
 21
6.184224342342702
 31
0.0
  0
TEXT
  5
11F4
  8
0
 10
88.85108004659764
 20
11.74068836574241
 30
0.0
 40
1.498499999999998
  1
秦 \U+7476
  7
CN
  0
TEXT
  5
11F5
  8
0
 10
83.74155052909828
 20
11.74068836574241
 30
0.0
 40
1.498499999999998
  1
製\M+50088D
  7
CN
  0
TEXT
  5
11F6
  8
0
 10
100.7056654998069
 20
11.74068836574241
 30
0.0
 40
1.498499999999998
  1
06.07.22
 41
0.7
  7
TW
  0
TEXT
  5
11F7
  8
0
 10
112.9848523310004
 20
16.73568836574231
 30
0.0
 40
1.498499999999998
  1
2:1
  7
CN
  0
TEXT
  5
11F8
  8
0
 10
83.764742369239
 20
3.819631680173813
 30
0.0
 40
2.757239999999997
  1
日 \M+50099C 株 式 \M+50095\M+5FE20社
  7
CN
  0
TEXT
  5
11F9
  8
0
 10
118.4319921448719
 20
16.73568836574231
 30
0.0
 40
1.498499999999998
  1
品   名
  7
CN
  0
TEXT
  5
11FA
  8
0
 10
71.70455921598386
 20
1.22964903319081
 30
0.0
 40
0.8990999999999991
  1
1000-2000
  7
CN
  0
TEXT
  5
11FB
  8
0
 10
72.36529445310657
 20
4.270524675880949
 30
0.0
 40
0.8990999999999991
  1
400-1000
  7
CN
  0
TEXT
  5
11FC
  8
0
 10
73.01552944034802
 20
7.392399675880995
 30
0.0
 40
0.8990999999999991
  1
120-400
  7
CN
  0
TEXT
  5
11FD
  8
0
 10
73.66576389055763
 20
10.51427467588081
 30
0.0
 40
0.8990999999999991
  1
30-120
  7
CN
  0
TEXT
  5
11FE
  8
0
 10
74.97551004308275
 20
13.65007635886394
 30
0.0
 40
0.8990999999999991
  1
6-30
  7
CN
  0
TEXT
  5
11FF
  8
0
 10
74.32080235998342
 20
16.7580246758809
 30
0.0
 40
0.8990999999999991
  1
0.5-6
  7
CN
  0
TEXT
  5
1200
  8
0
 10
79.17905332939677
 20
1.148649675880904
 30
0.0
 40
0.9989999999999988
  1
%%P1.2
  7
CN
  0
TEXT
  5
1201
  8
0
 10
79.17905332939677
 20
4.270524675880949
 30
0.0
 40
0.9989999999999988
  1
%%P0.8
  7
CN
  0
TEXT
  5
1202
  8
0
 10
79.17905332939677
 20
7.392399675880995
 30
0.0
 40
0.9989999999999988
  1
%%P0.5
  7
CN
  0
TEXT
  5
1203
  8
0
 10
79.17905332939677
 20
10.51427467588093
 30
0.0
 40
0.9989999999999988
  1
%%P0.3
  7
CN
  0
TEXT
  5
1204
  8
0
 10
79.17905332939677
 20
13.63614967588109
 30
0.0
 40
0.9989999999999988
  1
%%P0.2
  7
CN
  0
TEXT
  5
1205
  8
0
 10
79.17905332939677
 20
16.7580246758809
 30
0.0
 40
0.9989999999999988
  1
%%P0.1
  7
CN
  0
TEXT
  5
1206
  8
0
 10
78.34060055749524
 20
19.87989967588084
 30
0.0
 40
0.8990999999999991
  1
容許公差
  7
CN
  0
TEXT
  5
1207
  8
0
 10
70.73875763579622
 20
23.70079909367388
 30
0.0
 40
0.9989999999999988
  1
一   般   公   差
  7
CN
  0
TEXT
  5
1208
  8
0
 10
64.99350154825743
 20
1.750688365742178
 30
0.0
 40
1.498499999999998
  1
日付
  7
CN
  0
TEXT
  5
1209
  8
0
 10
48.22651473749602
 20
1.750688365742405
 30
0.0
 40
1.498499999999998
  1
更改\U+5185容
  7
CN
  0
TEXT
  5
120A
  8
0
 10
43.64732011623801
 20
6.451948288430742
 30
0.0
 40
1.248749999999998
  1
1
  0
LINE
  5
120B
  8
FRAME
 10
83.72999979127735
 20
24.97500006844933
 30
0.0
 11
83.72999979127735
 21
0.0000000684494239
 31
0.0
  0
LINE
  5
120C
  8
FRAME
 10
83.72999979127735
 20
21.77212571113961
 30
0.0
 11
69.6681139436148
 21
21.77212571113961
 31
0.0
  0
LINE
  5
120D
  8
FRAME
 10
83.72999979127735
 20
18.65025071113956
 30
0.0
 11
69.6681139436148
 21
18.65025071113956
 31
0.0
  0
LINE
  5
120E
  8
FRAME
 10
83.72999979127735
 20
15.52837571113963
 30
0.0
 11
69.6681139436148
 21
15.52837571113963
 31
0.0
  0
LINE
  5
120F
  8
FRAME
 10
83.72999979127735
 20
9.28462571113954
 30
0.0
 11
69.6681139436148
 21
9.28462571113954
 31
0.0
  0
LINE
  5
1210
  8
FRAME
 10
83.72999979127735
 20
12.4065007111397
 30
0.0
 11
69.6681139436148
 21
12.4065007111397
 31
0.0
  0
LINE
  5
1211
  8
FRAME
 10
83.72999979127735
 20
6.162750711139608
 30
0.0
 11
69.6681139436148
 21
6.162750711139608
 31
0.0
  0
LINE
  5
1212
  8
FRAME
 10
83.72999979127735
 20
3.040875711139677
 30
0.0
 11
69.6681139436148
 21
3.040875711139677
 31
0.0
  0
LINE
  5
1213
  8
FRAME
 10
78.33994961021358
 20
0.0000000684494239
 30
0.0
 11
78.33994961021358
 21
21.77212571113961
 31
0.0
  0
LINE
  5
1214
  8
FRAME
 10
40.95900014775361
 20
0.0000000684494239
 30
0.0
 11
40.95900014775361
 21
24.97500006844933
 31
0.0
  0
LINE
  5
1215
  8
0
 10
113.8882231367829
 20
11.79714331788517
 30
0.0
 11
113.8882231367829
 21
13.12876129588352
 31
0.0
  0
LINE
  5
1216
  8
0
 10
113.5050055653146
 20
12.46295230688435
 30
0.0
 11
116.7905519340952
 21
12.46295230688435
 31
0.0
  0
LINE
  5
1217
  8
0
 10
113.8882231367829
 20
11.79714331788517
 30
0.0
 11
116.5514590927801
 21
11.13133432888588
 31
0.0
  0
LINE
  5
1218
  8
0
 10
116.5514590927801
 20
11.13133432888588
 30
0.0
 11
116.5514590927801
 21
13.7945702848827
 31
0.0
  0
LINE
  5
1219
  8
FRAME
 10
118.3453497912769
 20
24.97500006844933
 30
0.0
 11
118.3453497912769
 21
0.0000000684494239
 31
0.0
  0
CIRCLE
  5
121A
  8
0
 10
109.5604647082876
 20
12.46295230688423
 30
0.0
 40
0.665808988999196
  0
LINE
  5
121B
  8
0
 10
107.896331112745
 20
12.46295230688423
 30
0.0
 11
111.3239953266011
 21
12.46295230688435
 31
0.0
  0
LINE
  5
121C
  8
0
 10
109.5604647082876
 20
10.80290185300549
 30
0.0
 11
109.5604647082876
 21
14.01754338496193
 31
0.0
  0
CIRCLE
  5
121D
  8
0
 10
109.5604647082876
 20
12.46295230688423
 30
0.0
 40
1.331617977998392
  0
LINE
  5
121E
  8
FRAME
 10
99.7639497912769
 20
24.97500006844933
 30
0.0
 11
99.76394979127758
 21
9.990000068449433
 31
0.0
  0
LINE
  5
121F
  8
FRAME
 10
106.8068997912774
 20
24.97500006844933
 30
0.0
 11
106.8068997912774
 21
9.990000068449433
 31
0.0
  0
LINE
  5
1220
  8
FRAME
 10
111.3023997912778
 20
24.97500006844933
 30
0.0
 11
111.3023997912778
 21
14.98500006844944
 31
0.0
  0
LINE
  5
1221
  8
FRAME
 10
95.26844979127736
 20
24.97500006844933
 30
0.0
 11
95.26844979127736
 21
9.990000068449433
 31
0.0
  0
LINE
  5
1222
  8
FRAME
 10
88.2254997912778
 20
24.97500006844933
 30
0.0
 11
88.2254997912778
 21
9.990000068449433
 31
0.0
  0
LINE
  5
1223
  8
FRAME
 10
69.6681139436148
 20
0.0000000684494239
 30
0.0
 11
69.6681139436148
 21
24.97500006844933
 31
0.0
  0
LINE
  5
1224
  8
FRAME
 10
64.57679864581814
 20
0.0000000684494239
 30
0.0
 11
64.57679864581814
 21
24.97500006844933
 31
0.0
  0
LINE
  5
1225
  8
FRAME
 10
58.27273983355144
 20
0.0000000684494239
 30
0.0
 11
58.27273983355258
 21
24.97500006844933
 31
0.0
  0
LINE
  5
1226
  8
0
 10
43.84221741422198
 20
3.381041544661286
 30
0.0
 11
45.16051921244025
 21
1.097675850437724
 31
0.0
  0
LINE
  5
1227
  8
0
 10
43.84221741422198
 20
3.381041544661286
 30
0.0
 11
42.52391561600348
 21
1.097675850437724
 31
0.0
  0
LINE
  5
1228
  8
0
 10
42.52391561600348
 20
1.097675850437724
 30
0.0
 11
45.16051921244025
 21
1.097675850437724
 31
0.0
  0
LINE
  5
1229
  8
FRAME
 10
46.69615663403579
 20
0.0000000684494239
 30
0.0
 11
46.69615663403579
 21
24.97500006844933
 31
0.0
  0
LINE
  5
122A
  8
FRAME
 10
69.6681139436148
 20
4.995000068449428
 30
0.0
 11
40.95900014775361
 21
4.995000068449428
 31
0.0
  0
LINE
  5
122B
  8
FRAME
 10
69.6681139436148
 20
9.990000068449433
 30
0.0
 11
43.45650014775356
 21
9.990000068449433
 31
0.0
  0
LINE
  5
122C
  8
FRAME
 10
69.6681139436148
 20
9.990000068449433
 30
0.0
 11
40.95900014775361
 21
9.990000068449433
 31
0.0
  0
LINE
  5
122D
  8
FRAME
 10
69.6681139436148
 20
14.98500006844944
 30
0.0
 11
40.95900014775361
 21
14.98500006844944
 31
0.0
  0
LINE
  5
122E
  8
FRAME
 10
69.6681139436148
 20
19.98000006844944
 30
0.0
 11
40.95900014775361
 21
19.98000006844944
 31
0.0
  0
LINE
  5
122F
  8
FRAME
 10
139.8600001477535
 20
24.97500006844933
 30
0.0
 11
40.95900014775361
 21
24.97500006844933
 31
0.0
  0
LINE
  5
1230
  8
FRAME
 10
139.8600001477535
 20
9.990000068449433
 30
0.0
 11
83.7299997912769
 21
9.990000068449433
 31
0.0
  0
LINE
  5
1231
  8
FRAME
 10
139.8600001477535
 20
19.98000006844944
 30
0.0
 11
83.72999979127735
 21
19.98000006844944
 31
0.0
  0
LINE
  5
1232
  8
FRAME
 10
83.72999979127735
 20
14.98500006844944
 30
0.0
 11
118.3453497912769
 21
14.98500006844944
 31
0.0
  0
LINE
  5
1233
  8
0
 10
113.8882231367829
 20
13.12876129588352
 30
0.0
 11
116.5514590927801
 21
13.7945702848827
 31
0.0
  0
TEXT
  5
1234
  8
0
  6
CONTINUOUS
 10
126.3439913192938
 20
12.46575332633397
 30
0.0
 40
1.74825
  1
止\U+8F6C片
  0
TEXT
  5
1235
  8
0
  6
CONTINUOUS
 10
124.1953845534149
 20
2.641909173855239
 30
0.0
 40
1.74825
  1
C0420220
  0
TEXT
  5
1236
  8
0
  6
CONTINUOUS
 10
127.795310499557
 20
22.02580508297534
 30
0.0
 40
1.498499999999998
  1
\U+5364素\U+706F
  0
TEXT
  5
1237
  8
DIM
  6
CONTINUOUS
 62
     3
 10
4.421032603793719
 20
20.88855393914393
 30
0.0
 40
1.9
  1
1.表面\U+5904理，\U+9540\U+954D．
  0
TEXT
  5
1238
  8
DIM
  6
CONTINUOUS
 62
     3
 10
0.8181953599057579
 20
24.08217646631866
 30
0.0
 40
1.9
  1
\U+5907注：
  0
TEXT
  5
1239
  8
CONTOUR
  6
CONTINUOUS
 62
     0
 10
112.8410587208627
 20
21.63291095062031
 30
0.0
 40
1.74825
  1
SPCC
  0
LINE
  5
123A
  8
CENTER
 10
57.48062440789226
 20
56.63390070968586
 30
0.0
 11
28.70258867415828
 21
56.63454756960653
 31
0.0
  0
LINE
  5
123B
  8
CENTER
 10
40.86739713035558
 20
62.58793245962983
 30
0.0
 11
40.90952301623702
 21
50.43807624216674
 31
0.0
  0
LINE
  5
123C
  8
CONTOUR
 10
32.70258867365328
 20
65.23445765938106
 30
0.0
 11
32.70258867365328
 21
56.63355712426835
 31
0.0
  0
LINE
  5
123D
  8
CONTOUR
 10
55.18776511138321
 20
65.23445765938112
 30
0.0
 11
55.18776511138367
 21
56.63355712426835
 31
0.0
  0
ARC
  5
123E
  8
CONTOUR
 10
54.18776511138321
 20
65.23445765938106
 30
0.0
 40
1.0
 50
0.0000000000032569
 51
90.0
  0
LINE
  5
123F
  8
CONTOUR
 10
30.70258867365328
 20
56.63355712426835
 30
0.0
 11
30.70258867365328
 21
59.63355712426835
 31
0.0
  0
LINE
  5
1240
  8
CONTOUR
 10
30.70258867365328
 20
59.63355712426835
 30
0.0
 11
32.70258867365328
 21
59.63355712426835
 31
0.0
  0
LINE
  5
1241
  8
CONTOUR
 10
32.70258867365328
 20
48.03445765938108
 30
0.0
 11
32.70258867365328
 21
56.63355712426835
 31
0.0
  0
LINE
  5
1242
  8
CONTOUR
 10
55.18776511138344
 20
48.03445765938096
 30
0.0
 11
55.18776511138367
 21
56.63355712426835
 31
0.0
  0
LINE
  5
1243
  8
CONTOUR
 10
30.70258867365328
 20
56.63355712426835
 30
0.0
 11
30.70258867365328
 21
53.63355712426835
 31
0.0
  0
LINE
  5
1244
  8
CONTOUR
 10
30.70258867365328
 20
53.63355712426835
 30
0.0
 11
32.70258867365328
 21
53.63355712426835
 31
0.0
  0
LINE
  5
1245
  8
CONTOUR
 10
33.70258867365328
 20
47.03445765938108
 30
0.0
 11
54.18776511138344
 21
47.03445765938096
 31
0.0
  0
ARC
  5
1246
  8
CONTOUR
 10
54.18776511138344
 20
48.03445765938096
 30
0.0
 40
1.0
 50
270.0
 51
0.0
  0
ARC
  5
1247
  8
CONTOUR
 10
33.70258867365328
 20
48.03445765938108
 30
0.0
 40
1.0
 50
180.0
 51
270.0
  0
LINE
  5
1248
  8
CONTOUR
 10
33.70258867365328
 20
66.23445765938106
 30
0.0
 11
54.18776511138321
 21
66.23445765938106
 31
0.0
  0
ARC
  5
1249
  8
CONTOUR
 10
33.70258867365328
 20
65.23445765938106
 30
0.0
 40
1.0
 50
90.0
 51
180.0
  0
DIMENSION
  5
124A
  8
DIM
  2
*D3
 10
60.77412704296285
 20
66.23445765938106
 30
0.0
 11
59.56579370962959
 21
56.63445765938121
 31
0.0
 12
-1215.533107086907
 22
-417.4396766419114
 32
0.0
 70
     0
 13
54.18776511138344
 23
47.03445765938096
 33
0.0
 14
54.18776511138344
 24
66.23445765938106
 34
0.0
 50
90.0
  0
CIRCLE
  5
124D
  8
CONTOUR
 10
40.8884600732963
 20
56.51300435089831
 30
0.0
 40
4.1
  0
DIMENSION
  5
124E
  8
DIM
  2
*D4
 10
38.46334366256333
 20
53.20712921798798
 30
0.0
 11
53.19274678110873
 21
69.86667204310356
 31
0.0
 12
-1215.533107086907
 22
-417.4396766419115
 32
0.0
 70
   131
 15
43.31357648402918
 25
59.81887948380852
 35
0.0
 40
0.0
  0
LINE
  5
1251
  8
CENTER
 10
107.136702431329
 20
56.63355712426824
 30
0.0
 11
92.93670243132897
 21
56.63355712426818
 31
0.0
  0
LINE
  5
1252
  8
CONTOUR
 10
103.136702431329
 20
66.23445765938106
 30
0.0
 11
105.136702431329
 21
66.23445765938106
 31
0.0
  0
LINE
  5
1253
  8
CONTOUR
 10
105.136702431329
 20
56.63355712426835
 30
0.0
 11
105.136702431329
 21
66.23445765938106
 31
0.0
  0
LINE
  5
1254
  8
CONTOUR
 10
105.136702431329
 20
66.23445765938106
 30
0.0
 11
103.136702431329
 21
66.23445765938106
 31
0.0
  0
LINE
  5
1255
  8
CONTOUR
 10
103.136702431329
 20
66.23445765938106
 30
0.0
 11
103.136702431329
 21
56.63355712426835
 31
0.0
  0
LINE
  5
1256
  8
CONTOUR
 10
103.136702431329
 20
56.63355712426835
 30
0.0
 11
103.136702431329
 21
59.63355712426835
 31
0.0
  0
LINE
  5
1257
  8
CONTOUR
 10
103.136702431329
 20
56.63355712426835
 30
0.0
 11
103.136702431329
 21
58.63355712426835
 31
0.0
  0
LINE
  5
1258
  8
CONTOUR
 10
103.136702431329
 20
56.63355712426835
 30
0.0
 11
103.136702431329
 21
59.63355712426835
 31
0.0
  0
LINE
  5
1259
  8
CONTOUR
 10
103.136702431329
 20
59.63355712426835
 30
0.0
 11
96.13670243132901
 21
59.63355712426841
 31
0.0
  0
LINE
  5
125A
  8
CONTOUR
 10
95.13670243132901
 20
58.63355712426841
 30
0.0
 11
95.13670243132901
 21
56.63355712426835
 31
0.0
  0
ARC
  5
125B
  8
CONTOUR
 10
96.13670243132901
 20
58.63355712426841
 30
0.0
 40
1.0
 50
90.0
 51
180.0
  0
LINE
  5
125C
  8
CONTOUR
 10
103.1367024313292
 20
47.03265658915558
 30
0.0
 11
105.1367024313292
 21
47.03265658915558
 31
0.0
  0
LINE
  5
125D
  8
CONTOUR
 10
105.136702431329
 20
56.63355712426829
 30
0.0
 11
105.1367024313292
 21
47.03265658915558
 31
0.0
  0
LINE
  5
125E
  8
CONTOUR
 10
105.1367024313292
 20
47.03265658915558
 30
0.0
 11
103.1367024313292
 21
47.03265658915558
 31
0.0
  0
LINE
  5
125F
  8
CONTOUR
 10
103.1367024313292
 20
47.03265658915558
 30
0.0
 11
103.136702431329
 21
56.63355712426829
 31
0.0
  0
LINE
  5
1260
  8
CONTOUR
 10
103.136702431329
 20
56.63355712426829
 30
0.0
 11
103.136702431329
 21
53.63355712426829
 31
0.0
  0
LINE
  5
1261
  8
CONTOUR
 10
103.136702431329
 20
56.63355712426829
 30
0.0
 11
103.136702431329
 21
54.63355712426829
 31
0.0
  0
LINE
  5
1262
  8
CONTOUR
 10
103.136702431329
 20
56.63355712426829
 30
0.0
 11
103.136702431329
 21
53.63355712426829
 31
0.0
  0
LINE
  5
1263
  8
CONTOUR
 10
103.136702431329
 20
53.63355712426829
 30
0.0
 11
96.13670243132901
 21
53.63355712426824
 31
0.0
  0
ARC
  5
1264
  8
CONTOUR
 10
96.13670243132901
 20
54.63355712426824
 30
0.0
 40
1.0
 50
180.0
 51
270.0
  0
LINE
  5
1265
  8
CONTOUR
 10
95.13670243132901
 20
54.63355712426824
 30
0.0
 11
95.13670243132901
 21
56.63355712426818
 31
0.0
  0
LINE
  5
1266
  8
BOWEL
 10
105.136702431329
 20
60.61297970720688
 30
0.0
 11
103.136702431329
 21
60.61297970720688
 31
0.0
  0
LINE
  5
1267
  8
BOWEL
 10
105.136702431329
 20
52.41302899458975
 30
0.0
 11
103.136702431329
 21
52.41302899458975
 31
0.0
  0
DIMENSION
  5
1268
  8
DIM
  2
*D5
 10
90.90010712179333
 20
53.63355712426829
 30
0.0
 11
89.80010712179342
 21
56.63355712426858
 31
0.0
 12
-1215.533107086907
 22
-417.4396766419114
 32
0.0
 70
     0
 13
96.13670243132901
 23
59.63355712426841
 33
0.0
 14
96.13670243132924
 24
53.63355712426829
 34
0.0
 50
90.0
  0
DIMENSION
  5
126B
  8
DIM
  2
*D6
 10
32.70258867365328
 20
44.392783989284
 30
0.0
 11
31.70258867365328
 21
45.49278398928402
 31
0.0
 12
-1215.533107086907
 22
-417.4396766419114
 32
0.0
 70
     0
 13
30.70258867365328
 23
53.63355712426835
 33
0.0
 14
32.70258867365328
 24
48.03445765938108
 34
0.0
  0
DIMENSION
  5
126E
  8
DIM
  2
*D7
 10
40.90952301623702
 20
44.392783989284
 30
0.0
 11
36.80605584494515
 21
45.49278398928402
 31
0.0
 12
-1215.533107086907
 22
-417.4396766419114
 32
0.0
 70
     0
  1
8.2
 13
32.70258867365328
 23
48.03445765938108
 33
0.0
 14
40.90952301623702
 24
50.43807624216674
 34
0.0
  0
DIMENSION
  5
1271
  8
DIM
  2
*D8
 10
55.18776511138344
 20
41.43673706939023
 30
0.0
 11
43.94517689251825
 21
42.53673706939026
 31
0.0
 12
-1215.533107086907
 22
-417.4396766419114
 32
0.0
 70
     0
  1
22.5
 13
32.70258867365328
 23
48.03445765938108
 33
0.0
 14
55.18776511138344
 24
48.03445765938096
 34
0.0
  0
DIMENSION
  5
1274
  8
DIM
  2
*D9
 10
105.1367024313292
 20
41.43673706939023
 30
0.0
 11
104.1367024313292
 21
42.53673706939026
 31
0.0
 12
-1215.533107086907
 22
-417.4396766419114
 32
0.0
 70
     0
 13
103.1367024313292
 23
47.03265658915558
 33
0.0
 14
105.1367024313292
 24
47.03265658915558
 34
0.0
  0
TEXT
  5
1277
  8
DIM
  6
CONTINUOUS
 62
     3
 10
4.237048671833463
 20
16.81650577059569
 30
0.0
 40
1.9
  1
2.不可有毛刺，不可生\U+9508
  0
TEXT
  5
1278
  8
BOWEL
  6
CONTINUOUS
 62
     3
 10
4.280998055521877
 20
13.20550939307575
 30
0.0
 40
1.9
  1
3.未\U+6807\U+5706角\U+4E3AＲ１
  0
DIMENSION
  5
1279
  8
DIM
  2
*D10
 10
103.1367024313292
 20
41.43673706939029
 30
0.0
 11
99.13670243132901
 21
42.53673706939031
 31
0.0
 12
-1215.533107086907
 22
-417.4396766419114
 32
0.0
 70
     0
 13
95.13670243132901
 23
54.63355712426824
 33
0.0
 14
103.1367024313292
 24
47.03265658915558
 34
0.0
  0
ENDBLK
  8
0
  0
BLOCK
  8
0
  2
NIKKI_LOGO
 70
     0
 10
0.0
 20
0.0
 30
0.0
  0
POLYLINE
  5
8B1F
  8
CONTOUR
 66
     1
 10
0.0
 20
0.0
 30
0.0
 70
     1
  0
VERTEX
  5
11FAD
  8
CONTOUR
 10
29.39638059958127
 20
44.7465080558045
 30
0.0
  0
VERTEX
  5
11FAE
  8
CONTOUR
 10
34.39638059958127
 20
44.7465080558045
 30
0.0
  0
VERTEX
  5
11FAF
  8
CONTOUR
 10
34.39638059958127
 20
29.2465080558045
 30
0.0
  0
VERTEX
  5
11FB0
  8
CONTOUR
 10
29.39638059958127
 20
29.2465080558045
 30
0.0
  0
VERTEX
  5
11FB1
  8
CONTOUR
 10
25.09638059958127
 20
37.6465080558045
 30
0.0
  0
VERTEX
  5
11FB2
  8
CONTOUR
 10
25.09638059958127
 20
29.2465080558045
 30
0.0
  0
VERTEX
  5
11FB3
  8
CONTOUR
 10
20.09638059958127
 20
29.2465080558045
 30
0.0
  0
VERTEX
  5
11FB4
  8
CONTOUR
 10
20.09638059958127
 20
44.7465080558045
 30
0.0
  0
VERTEX
  5
11FB5
  8
CONTOUR
 10
25.09638059958127
 20
44.7465080558045
 30
0.0
  0
VERTEX
  5
11FB6
  8
CONTOUR
 10
29.39638059958127
 20
36.3465080558045
 30
0.0
  0
SEQEND
  5
12020
  8
CONTOUR
  0
POLYLINE
  5
8B20
  8
CONTOUR
 66
     1
 10
0.0
 20
0.0
 30
0.0
 70
     1
  0
VERTEX
  5
11FB7
  8
CONTOUR
 10
36.29638059958127
 20
29.24650805580449
 30
0.0
  0
VERTEX
  5
11FB8
  8
CONTOUR
 10
41.29638059958128
 20
29.24650805580449
 30
0.0
  0
VERTEX
  5
11FB9
  8
CONTOUR
 10
41.29638059958128
 20
44.7465080558045
 30
0.0
  0
VERTEX
  5
11FBA
  8
CONTOUR
 10
36.29638059958127
 20
44.7465080558045
 30
0.0
  0
SEQEND
  5
12021
  8
CONTOUR
  0
POLYLINE
  5
8B21
  8
CONTOUR
 66
     1
 10
0.0
 20
0.0
 30
0.0
 70
     1
  0
VERTEX
  5
11FBB
  8
CONTOUR
 10
43.19638059958127
 20
29.24650805580449
 30
0.0
  0
VERTEX
  5
11FBC
  8
CONTOUR
 10
43.19638059958127
 20
44.7465080558045
 30
0.0
  0
VERTEX
  5
11FBD
  8
CONTOUR
 10
48.19638059958127
 20
44.7465080558045
 30
0.0
  0
VERTEX
  5
11FBE
  8
CONTOUR
 10
48.19638059958127
 20
39.7465080558045
 30
0.0
  0
VERTEX
  5
11FBF
  8
CONTOUR
 10
52.19638059958127
 20
44.7465080558045
 30
0.0
  0
VERTEX
  5
11FC0
  8
CONTOUR
 10
57.89638059958128
 20
44.7465080558045
 30
0.0
  0
VERTEX
  5
11FC1
  8
CONTOUR
 10
52.49638059958128
 20
38.8465080558045
 30
0.0
  0
VERTEX
  5
11FC2
  8
CONTOUR
 10
58.59638059958128
 20
29.24650805580449
 30
0.0
  0
VERTEX
  5
11FC3
  8
CONTOUR
 10
52.69638059958128
 20
29.24650805580449
 30
0.0
  0
VERTEX
  5
11FC4
  8
CONTOUR
 10
49.26815226039782
 20
35.31936968521516
 30
0.0
  0
VERTEX
  5
11FC5
  8
CONTOUR
 10
48.19638059958127
 20
34.14835990765633
 30
0.0
  0
VERTEX
  5
11FC6
  8
CONTOUR
 10
48.19638059958127
 20
29.24650805580449
 30
0.0
  0
SEQEND
  5
12022
  8
CONTOUR
  0
POLYLINE
  5
8B22
  8
CONTOUR
 66
     1
 10
0.0
 20
0.0
 30
0.0
 70
     1
  0
VERTEX
  5
11FC7
  8
CONTOUR
 10
75.09638059958127
 20
29.24650805580449
 30
0.0
  0
VERTEX
  5
11FC8
  8
CONTOUR
 10
80.09638059958127
 20
29.24650805580449
 30
0.0
  0
VERTEX
  5
11FC9
  8
CONTOUR
 10
80.09638059958127
 20
44.7465080558045
 30
0.0
  0
VERTEX
  5
11FCA
  8
CONTOUR
 10
75.09638059958127
 20
44.7465080558045
 30
0.0
  0
SEQEND
  5
12023
  8
CONTOUR
  0
POLYLINE
  5
8B23
  8
CONTOUR
 66
     1
 10
0.0
 20
0.0
 30
0.0
 70
     1
  0
VERTEX
  5
11FCB
  8
CONTOUR
 10
59.14638059958126
 20
29.24650805580449
 30
0.0
  0
VERTEX
  5
11FCC
  8
CONTOUR
 10
59.14638059958126
 20
44.7465080558045
 30
0.0
  0
VERTEX
  5
11FCD
  8
CONTOUR
 10
64.14638059958126
 20
44.7465080558045
 30
0.0
  0
VERTEX
  5
11FCE
  8
CONTOUR
 10
64.14638059958126
 20
39.7465080558045
 30
0.0
  0
VERTEX
  5
11FCF
  8
CONTOUR
 10
68.14638059958126
 20
44.7465080558045
 30
0.0
  0
VERTEX
  5
11FD0
  8
CONTOUR
 10
73.84638059958127
 20
44.7465080558045
 30
0.0
  0
VERTEX
  5
11FD1
  8
CONTOUR
 10
68.44638059958126
 20
38.8465080558045
 30
0.0
  0
VERTEX
  5
11FD2
  8
CONTOUR
 10
74.54638059958127
 20
29.24650805580449
 30
0.0
  0
VERTEX
  5
11FD3
  8
CONTOUR
 10
68.64638059958128
 20
29.24650805580449
 30
0.0
  0
VERTEX
  5
11FD4
  8
CONTOUR
 10
65.2181522603978
 20
35.31936968521516
 30
0.0
  0
VERTEX
  5
11FD5
  8
CONTOUR
 10
64.14638059958125
 20
34.14835990765633
 30
0.0
  0
VERTEX
  5
11FD6
  8
CONTOUR
 10
64.14638059958125
 20
29.24650805580449
 30
0.0
  0
SEQEND
  5
12024
  8
CONTOUR
  0
ENDBLK
  8
0
  0
BLOCK
  8
0
  2
_DOTSMALL
 70
     0
 10
0.0
 20
0.0
 30
0.0
  0
POLYLINE
  5
90F7
  8
0
  6
BYBLOCK
 62
     0
 66
     1
 10
0.0
 20
0.0
 30
0.0
 70
     1
 40
0.5
 41
0.5
  0
VERTEX
  5
11FD7
  8
0
  6
BYBLOCK
 62
     0
 10
-0.0625
 20
0.0
 30
0.0
 42
1.0
  0
VERTEX
  5
11FD8
  8
0
  6
BYBLOCK
 62
     0
 10
0.0625
 20
0.0
 30
0.0
 42
1.0
  0
SEQEND
  5
12025
  8
0
  6
BYBLOCK
 62
     0
  0
ENDBLK
  8
0
  0
BLOCK
  8
0
  2
NIKKI
 70
     0
 10
0.0
 20
0.0
 30
0.0
  0
POLYLINE
  5
9AC0
  8
CONTOUR
 66
     1
 10
0.0
 20
0.0
 30
0.0
 70
     1
  0
VERTEX
  5
11FD9
  8
CONTOUR
 10
120.3364859920483
 20
117.75
 30
0.0
  0
VERTEX
  5
11FDA
  8
CONTOUR
 10
125.3364859920483
 20
117.75
 30
0.0
  0
VERTEX
  5
11FDB
  8
CONTOUR
 10
125.3364859920483
 20
102.25
 30
0.0
  0
VERTEX
  5
11FDC
  8
CONTOUR
 10
120.3364859920483
 20
102.25
 30
0.0
  0
VERTEX
  5
11FDD
  8
CONTOUR
 10
116.0364859920483
 20
110.65
 30
0.0
  0
VERTEX
  5
11FDE
  8
CONTOUR
 10
116.0364859920483
 20
102.25
 30
0.0
  0
VERTEX
  5
11FDF
  8
CONTOUR
 10
111.0364859920483
 20
102.25
 30
0.0
  0
VERTEX
  5
11FE0
  8
CONTOUR
 10
111.0364859920483
 20
117.75
 30
0.0
  0
VERTEX
  5
11FE1
  8
CONTOUR
 10
116.0364859920483
 20
117.75
 30
0.0
  0
VERTEX
  5
11FE2
  8
CONTOUR
 10
120.3364859920483
 20
109.35
 30
0.0
  0
SEQEND
  5
12026
  8
CONTOUR
  0
POLYLINE
  5
9AC1
  8
CONTOUR
 66
     1
 10
0.0
 20
0.0
 30
0.0
 70
     1
  0
VERTEX
  5
11FE3
  8
CONTOUR
 10
127.2364859920483
 20
102.25
 30
0.0
  0
VERTEX
  5
11FE4
  8
CONTOUR
 10
132.2364859920483
 20
102.25
 30
0.0
  0
VERTEX
  5
11FE5
  8
CONTOUR
 10
132.2364859920483
 20
117.75
 30
0.0
  0
VERTEX
  5
11FE6
  8
CONTOUR
 10
127.2364859920483
 20
117.75
 30
0.0
  0
SEQEND
  5
12027
  8
CONTOUR
  0
POLYLINE
  5
9AC2
  8
CONTOUR
 66
     1
 10
0.0
 20
0.0
 30
0.0
 70
     1
  0
VERTEX
  5
11FE7
  8
CONTOUR
 10
140.1364859920483
 20
108.2444444444444
 30
0.0
  0
VERTEX
  5
11FE8
  8
CONTOUR
 10
139.1364859920483
 20
107.1518518518518
 30
0.0
  0
VERTEX
  5
11FE9
  8
CONTOUR
 10
139.1364859920483
 20
102.25
 30
0.0
  0
VERTEX
  5
11FEA
  8
CONTOUR
 10
134.1364859920483
 20
102.25
 30
0.0
  0
VERTEX
  5
11FEB
  8
CONTOUR
 10
134.1364859920483
 20
117.75
 30
0.0
  0
VERTEX
  5
11FEC
  8
CONTOUR
 10
139.1364859920483
 20
117.75
 30
0.0
  0
VERTEX
  5
11FED
  8
CONTOUR
 10
139.1364859920483
 20
112.75
 30
0.0
  0
VERTEX
  5
11FEE
  8
CONTOUR
 10
143.1364859920483
 20
117.75
 30
0.0
  0
VERTEX
  5
11FEF
  8
CONTOUR
 10
148.8364859920483
 20
117.75
 30
0.0
  0
VERTEX
  5
11FF0
  8
CONTOUR
 10
143.4364859920483
 20
111.85
 30
0.0
  0
VERTEX
  5
11FF1
  8
CONTOUR
 10
149.5364859920483
 20
102.25
 30
0.0
  0
VERTEX
  5
11FF2
  8
CONTOUR
 10
143.6364859920483
 20
102.25
 30
0.0
  0
SEQEND
  5
12028
  8
CONTOUR
  0
POLYLINE
  5
9AC3
  8
CONTOUR
 66
     1
 10
0.0
 20
0.0
 30
0.0
 70
     1
  0
VERTEX
  5
11FF3
  8
CONTOUR
 10
166.0364859920483
 20
102.25
 30
0.0
  0
VERTEX
  5
11FF4
  8
CONTOUR
 10
171.0364859920483
 20
102.25
 30
0.0
  0
VERTEX
  5
11FF5
  8
CONTOUR
 10
171.0364859920483
 20
117.75
 30
0.0
  0
VERTEX
  5
11FF6
  8
CONTOUR
 10
166.0364859920483
 20
117.75
 30
0.0
  0
SEQEND
  5
12029
  8
CONTOUR
  0
POLYLINE
  5
9AC4
  8
CONTOUR
 66
     1
 10
0.0
 20
0.0
 30
0.0
 70
     1
  0
VERTEX
  5
11FF7
  8
CONTOUR
 10
156.0864859920483
 20
108.2444444444444
 30
0.0
  0
VERTEX
  5
11FF8
  8
CONTOUR
 10
155.0864859920483
 20
107.1518518518518
 30
0.0
  0
VERTEX
  5
11FF9
  8
CONTOUR
 10
155.0864859920483
 20
102.25
 30
0.0
  0
VERTEX
  5
11FFA
  8
CONTOUR
 10
150.0864859920483
 20
102.25
 30
0.0
  0
VERTEX
  5
11FFB
  8
CONTOUR
 10
150.0864859920483
 20
117.75
 30
0.0
  0
VERTEX
  5
11FFC
  8
CONTOUR
 10
155.0864859920483
 20
117.75
 30
0.0
  0
VERTEX
  5
11FFD
  8
CONTOUR
 10
155.0864859920483
 20
112.75
 30
0.0
  0
VERTEX
  5
11FFE
  8
CONTOUR
 10
159.0864859920483
 20
117.75
 30
0.0
  0
VERTEX
  5
11FFF
  8
CONTOUR
 10
164.7864859920483
 20
117.75
 30
0.0
  0
VERTEX
  5
12000
  8
CONTOUR
 10
159.3864859920483
 20
111.85
 30
0.0
  0
VERTEX
  5
12001
  8
CONTOUR
 10
165.4864859920483
 20
102.25
 30
0.0
  0
VERTEX
  5
12002
  8
CONTOUR
 10
159.5864859920483
 20
102.25
 30
0.0
  0
SEQEND
  5
1202A
  8
CONTOUR
  0
ENDBLK
  8
0
  0
BLOCK
  8
0
  2
LS
 70
     0
 10
0.0
 20
0.0
 30
0.0
  0
LINE
  5
9ADF
  8
CONTOUR
 10
996.165340046498
 20
-53.5410077480824
 30
0.0
 11
995.9055324253627
 21
-53.0910077480824
 31
0.0
  0
LINE
  5
9AE0
  8
CONTOUR
 10
995.5457248042273
 20
-53.5410077480824
 30
0.0
 11
995.8055324253627
 21
-53.0910077480824
 31
0.0
  0
LINE
  5
9AE1
  8
CONTOUR
 10
995.9055324253627
 20
-53.0910077480824
 30
0.0
 11
995.8055324253627
 21
-53.0910077480824
 31
0.0
  0
LINE
  5
9AE2
  8
CONTOUR
 10
994.575340046498
 20
-55.6410077480824
 30
0.0
 11
994.3155324253627
 21
-56.0910077480824
 31
0.0
  0
LINE
  5
9AE3
  8
CONTOUR
 10
993.9557248042274
 20
-55.6410077480824
 30
0.0
 11
994.2155324253628
 21
-56.0910077480824
 31
0.0
  0
LINE
  5
9AE4
  8
CONTOUR
 10
994.3155324253627
 20
-56.0910077480824
 30
0.0
 11
994.2155324253628
 21
-56.0910077480824
 31
0.0
  0
LINE
  5
9AE5
  8
CONTOUR
 10
995.6353400464981
 20
-55.6410077480824
 30
0.0
 11
995.3755324253627
 21
-56.0910077480824
 31
0.0
  0
LINE
  5
9AE6
  8
CONTOUR
 10
995.0157248042274
 20
-55.6410077480824
 30
0.0
 11
995.2755324253627
 21
-56.0910077480824
 31
0.0
  0
LINE
  5
9AE7
  8
CONTOUR
 10
995.3755324253627
 20
-56.0910077480824
 30
0.0
 11
995.2755324253627
 21
-56.0910077480824
 31
0.0
  0
LINE
  5
9AE8
  8
CONTOUR
 10
996.695340046498
 20
-55.6410077480824
 30
0.0
 11
996.4355324253627
 21
-56.0910077480824
 31
0.0
  0
LINE
  5
9AE9
  8
CONTOUR
 10
996.0757248042274
 20
-55.6410077480824
 30
0.0
 11
996.3355324253628
 21
-56.0910077480824
 31
0.0
  0
LINE
  5
9AEA
  8
CONTOUR
 10
996.4355324253627
 20
-56.0910077480824
 30
0.0
 11
996.3355324253628
 21
-56.0910077480824
 31
0.0
  0
LINE
  5
9AEB
  8
CONTOUR
 10
996.695340046498
 20
-55.64100774808239
 30
0.0
 11
996.6785790787882
 21
-55.64100774808239
 31
0.0
  0
LINE
  5
9AEC
  8
CONTOUR
 10
996.0757248042274
 20
-55.64100774808239
 30
0.0
 11
995.6353400464981
 21
-55.64100774808239
 31
0.0
  0
LINE
  5
9AED
  8
CONTOUR
 10
995.0157248042274
 20
-55.64100774808239
 30
0.0
 11
994.575340046498
 21
-55.6410077480824
 31
0.0
  0
LINE
  5
9AEE
  8
CONTOUR
 10
993.9557248042274
 20
-55.6410077480824
 30
0.0
 11
993.5153400464981
 21
-55.6410077480824
 31
0.0
  0
LINE
  5
9AEF
  8
CONTOUR
 10
992.8957248042274
 20
-55.6410077480824
 30
0.0
 11
992.455340046498
 21
-55.64100774808239
 31
0.0
  0
LINE
  5
9AF0
  8
CONTOUR
 10
991.8357248042274
 20
-55.6410077480824
 30
0.0
 11
991.0599019431937
 21
-55.6410077480824
 31
0.0
  0
LINE
  5
9AF1
  8
CONTOUR
 10
997.0657248042273
 20
-53.5410077480824
 30
0.0
 11
996.165340046498
 21
-53.5410077480824
 31
0.0
  0
LINE
  5
9AF2
  8
CONTOUR
 10
995.5457248042273
 20
-53.5410077480824
 30
0.0
 11
995.1053400464981
 21
-53.5410077480824
 31
0.0
  0
LINE
  5
9AF3
  8
CONTOUR
 10
994.4857248042274
 20
-53.5410077480824
 30
0.0
 11
994.045340046498
 21
-53.5410077480824
 31
0.0
  0
LINE
  5
9AF4
  8
CONTOUR
 10
993.4257248042273
 20
-53.5410077480824
 30
0.0
 11
992.9853400464981
 21
-53.5410077480824
 31
0.0
  0
LINE
  5
9AF5
  8
CONTOUR
 10
992.3657248042274
 20
-53.5410077480824
 30
0.0
 11
991.925340046498
 21
-53.5410077480824
 31
0.0
  0
LINE
  5
9AF6
  8
CONTOUR
 10
991.3057248042273
 20
-53.5410077480824
 30
0.0
 11
991.0599019431937
 21
-53.5410077480824
 31
0.0
  0
LINE
  5
9AF7
  8
CONTOUR
 10
993.5153400464981
 20
-55.6410077480824
 30
0.0
 11
993.2555324253627
 21
-56.0910077480824
 31
0.0
  0
LINE
  5
9AF8
  8
CONTOUR
 10
992.8957248042274
 20
-55.6410077480824
 30
0.0
 11
993.1555324253627
 21
-56.0910077480824
 31
0.0
  0
LINE
  5
9AF9
  8
CONTOUR
 10
993.2555324253627
 20
-56.0910077480824
 30
0.0
 11
993.1555324253627
 21
-56.0910077480824
 31
0.0
  0
LINE
  5
9AFA
  8
CONTOUR
 10
992.455340046498
 20
-55.6410077480824
 30
0.0
 11
992.1955324253627
 21
-56.0910077480824
 31
0.0
  0
LINE
  5
9AFB
  8
CONTOUR
 10
991.8357248042274
 20
-55.6410077480824
 30
0.0
 11
992.0955324253628
 21
-56.0910077480824
 31
0.0
  0
LINE
  5
9AFC
  8
CONTOUR
 10
992.1955324253627
 20
-56.0910077480824
 30
0.0
 11
992.0955324253628
 21
-56.0910077480824
 31
0.0
  0
LINE
  5
9AFD
  8
CONTOUR
 10
995.105340046498
 20
-53.5410077480824
 30
0.0
 11
994.8455324253628
 21
-53.0910077480824
 31
0.0
  0
LINE
  5
9AFE
  8
CONTOUR
 10
994.4857248042274
 20
-53.5410077480824
 30
0.0
 11
994.7455324253627
 21
-53.0910077480824
 31
0.0
  0
LINE
  5
9AFF
  8
CONTOUR
 10
994.8455324253628
 20
-53.0910077480824
 30
0.0
 11
994.7455324253627
 21
-53.0910077480824
 31
0.0
  0
LINE
  5
9B00
  8
CONTOUR
 10
994.045340046498
 20
-53.5410077480824
 30
0.0
 11
993.7855324253627
 21
-53.0910077480824
 31
0.0
  0
LINE
  5
9B01
  8
CONTOUR
 10
993.4257248042273
 20
-53.5410077480824
 30
0.0
 11
993.6855324253627
 21
-53.0910077480824
 31
0.0
  0
LINE
  5
9B02
  8
CONTOUR
 10
993.7855324253627
 20
-53.0910077480824
 30
0.0
 11
993.6855324253627
 21
-53.0910077480824
 31
0.0
  0
LINE
  5
9B03
  8
CONTOUR
 10
992.9853400464981
 20
-53.5410077480824
 30
0.0
 11
992.7255324253628
 21
-53.0910077480824
 31
0.0
  0
LINE
  5
9B04
  8
CONTOUR
 10
992.3657248042274
 20
-53.5410077480824
 30
0.0
 11
992.6255324253627
 21
-53.0910077480824
 31
0.0
  0
LINE
  5
9B05
  8
CONTOUR
 10
992.7255324253626
 20
-53.0910077480824
 30
0.0
 11
992.6255324253627
 21
-53.0910077480824
 31
0.0
  0
LINE
  5
9B06
  8
CONTOUR
 10
991.925340046498
 20
-53.5410077480824
 30
0.0
 11
991.6655324253627
 21
-53.0910077480824
 31
0.0
  0
LINE
  5
9B07
  8
CONTOUR
 10
991.3057248042273
 20
-53.5410077480824
 30
0.0
 11
991.5655324253627
 21
-53.0910077480824
 31
0.0
  0
LINE
  5
9B08
  8
CONTOUR
 10
991.6655324253627
 20
-53.0910077480824
 30
0.0
 11
991.5655324253627
 21
-53.0910077480824
 31
0.0
  0
LINE
  5
9B09
  8
CONTOUR
 10
996.0757248042274
 20
-55.6410077480824
 30
0.0
 11
995.5457248042273
 21
-53.5410077480824
 31
0.0
  0
LINE
  5
9B0A
  8
CONTOUR
 10
995.6353400464981
 20
-55.6410077480824
 30
0.0
 11
995.105340046498
 21
-53.5410077480824
 31
0.0
  0
LINE
  5
9B0B
  8
CONTOUR
 10
994.8455324253628
 20
-53.0910077480824
 30
0.0
 11
995.3755324253627
 21
-56.0910077480824
 31
0.0
  0
LINE
  5
9B0C
  8
CONTOUR
 10
995.2755324253627
 20
-56.0910077480824
 30
0.0
 11
994.7455324253627
 21
-53.0910077480824
 31
0.0
  0
LINE
  5
9B0D
  8
CONTOUR
 10
994.4857248042274
 20
-53.5410077480824
 30
0.0
 11
995.0157248042274
 21
-55.6410077480824
 31
0.0
  0
LINE
  5
9B0E
  8
CONTOUR
 10
994.575340046498
 20
-55.6410077480824
 30
0.0
 11
994.045340046498
 21
-53.5410077480824
 31
0.0
  0
LINE
  5
9B0F
  8
CONTOUR
 10
993.7855324253627
 20
-53.0910077480824
 30
0.0
 11
994.3155324253627
 21
-56.0910077480824
 31
0.0
  0
LINE
  5
9B10
  8
CONTOUR
 10
993.9557248042274
 20
-55.6410077480824
 30
0.0
 11
993.4257248042273
 21
-53.5410077480824
 31
0.0
  0
LINE
  5
9B11
  8
CONTOUR
 10
993.6855324253627
 20
-53.0910077480824
 30
0.0
 11
994.2155324253628
 21
-56.0910077480824
 31
0.0
  0
LINE
  5
9B12
  8
CONTOUR
 10
993.5153400464981
 20
-55.64100774808239
 30
0.0
 11
992.9853400464981
 21
-53.5410077480824
 31
0.0
  0
LINE
  5
9B13
  8
CONTOUR
 10
992.7255324253628
 20
-53.0910077480824
 30
0.0
 11
993.148304108177
 21
-55.48405500929472
 31
0.0
  0
LINE
  5
9B14
  8
CONTOUR
 10
992.8207635264108
 20
-55.34399136428102
 30
0.0
 11
992.3657248042274
 21
-53.5410077480824
 31
0.0
  0
LINE
  5
9B15
  8
CONTOUR
 10
992.6255324253627
 20
-53.0910077480824
 30
0.0
 11
993.0401320791806
 21
-55.43779824139116
 31
0.0
  0
LINE
  5
9B16
  8
CONTOUR
 10
992.3271008602019
 20
-55.1328902174747
 30
0.0
 11
991.925340046498
 21
-53.5410077480824
 31
0.0
  0
LINE
  5
9B17
  8
CONTOUR
 10
991.6655324253627
 20
-53.0910077480824
 30
0.0
 11
992.0016806008161
 21
-54.99373326951697
 31
0.0
  0
LINE
  5
9B18
  8
CONTOUR
 10
991.6325243401146
 20
-54.83587383367333
 30
0.0
 11
991.3057248042273
 21
-53.5410077480824
 31
0.0
  0
LINE
  5
9B19
  8
CONTOUR
 10
991.5655324253627
 20
-53.0910077480824
 30
0.0
 11
991.8935085718199
 21
-54.94747650161341
 31
0.0
  0
LINE
  5
9B1A
  8
CONTOUR
 10
995.9055324253627
 20
-53.0910077480824
 30
0.0
 11
996.4355324253627
 21
-56.0910077480824
 31
0.0
  0
LINE
  5
9B1B
  8
CONTOUR
 10
996.3355324253628
 20
-56.0910077480824
 30
0.0
 11
995.8055324253627
 21
-53.0910077480824
 31
0.0
  0
LINE
  5
9B1C
  8
CONTOUR
 10
996.695340046498
 20
-55.64100774808239
 30
0.0
 11
996.165340046498
 21
-53.5410077480824
 31
0.0
  0
LINE
  5
9B1D
  8
CONTOUR
 10
996.695340046498
 20
-55.64100774808239
 30
0.0
 11
997.0657248042273
 21
-55.6410077480824
 31
0.0
  0
LINE
  5
9B1E
  8
CONTOUR
 10
997.0599019431937
 20
-57.79344749837285
 30
0.0
 11
997.0599019431937
 21
-51.38856799779195
 31
0.0
  0
LINE
  5
9B1F
  8
CONTOUR
 10
991.0599019431937
 20
-55.64100774808239
 30
0.0
 11
991.0599019431937
 21
-53.5410077480824
 31
0.0
  0
ARC
  5
9B20
  8
CONTOUR
 10
994.3599019431938
 20
-54.5910077480824
 30
0.0
 40
4.6
 50
312.6268020619681
 51
47.37319793803191
  0
ARC
  5
9B21
  8
CONTOUR
 10
997.3074621929032
 20
-51.38856799779195
 30
0.0
 40
0.2475602497095872
 50
47.37319793803191
 51
180.0
  0
ARC
  5
9B22
  8
CONTOUR
 10
997.3074621929032
 20
-57.79344749837285
 30
0.0
 40
0.2475602497095872
 50
180.0
 51
312.6268020619681
  0
LINE
  5
9B23
  8
CONTOUR
 10
993.5153400464981
 20
-55.64100774808239
 30
0.0
 11
991.0599019431937
 21
-54.5910077480824
 31
0.0
  0
ENDBLK
  8
0
  0
BLOCK
  8
0
  2
PM20-350
 70
     0
 10
0.0
 20
0.0
 30
0.0
  0
LINE
  5
9B72
  8
CONTOUR
 10
-433.1736358966207
 20
336.62604042866
 30
0.0
 11
-318.9263270900788
 21
336.62604042866
 31
0.0
  0
ARC
  5
9B73
  8
CONTOUR
 10
-323.4736358966207
 20
336.12604042866
 30
0.0
 40
0.5
 50
0.0
 51
90.0
  0
LINE
  5
9B74
  8
CONTOUR
 10
-429.4209447031626
 20
301.62604042866
 30
0.0
 11
-315.1736358966207
 21
301.62604042866
 31
0.0
  0
LINE
  5
9B75
  8
CONTOUR
 10
-315.1736358966206
 20
332.8733492352019
 30
0.0
 11
-315.1736358966207
 21
301.62604042866
 31
0.0
  0
ARC
  5
9B76
  8
CONTOUR
 10
-315.6736358966206
 20
328.32604042866
 30
0.0
 40
0.5
 50
0.0
 51
90.0
  0
LINE
  5
9B77
  8
CONTOUR
 10
-433.1736358966207
 20
336.62604042866
 30
0.0
 11
-433.1736358966207
 21
305.378731622118
 31
0.0
  0
ARC
  5
9B78
  8
CONTOUR
 10
-318.6736358966207
 20
333.12604042866
 30
0.0
 40
1.8
 50
134.9999999999987
 51
315.0000000000013
  0
ARC
  5
9B79
  8
CONTOUR
 10
-318.6736358966207
 20
333.12604042866
 30
0.0
 40
4.3
 50
180.0
 51
270.0
  0
LINE
  5
9B7A
  8
CONTOUR
 10
-317.4008436904849
 20
331.8532482225241
 30
0.0
 11
-316.0271892872139
 21
333.2269026257952
 31
0.0
  0
ARC
  5
9B7B
  8
CONTOUR
 10
-315.6736358966206
 20
332.8733492352019
 30
0.0
 40
0.5
 50
359.9999999999999
 51
135.0000000000007
  0
LINE
  5
9B7C
  8
CONTOUR
 10
-319.9464281027565
 20
334.3988326347957
 30
0.0
 11
-318.5727736994855
 21
335.7724870380667
 31
0.0
  0
ARC
  5
9B7D
  8
CONTOUR
 10
-318.9263270900788
 20
336.12604042866
 30
0.0
 40
0.5
 50
314.9999999999985
 51
90.0
  0
LINE
  5
9B7E
  8
CONTOUR
 10
-322.9736358966207
 20
333.12604042866
 30
0.0
 11
-322.9736358966207
 21
336.12604042866
 31
0.0
  0
LINE
  5
9B7F
  8
CONTOUR
 10
-318.6736358966207
 20
328.82604042866
 30
0.0
 11
-315.6736358966206
 21
328.82604042866
 31
0.0
  0
ARC
  5
9B80
  8
CONTOUR
 10
-424.8736358966206
 20
302.1260404286599
 30
0.0
 40
0.5
 50
180.0
 51
270.0
  0
ARC
  5
9B81
  8
CONTOUR
 10
-432.6736358966207
 20
309.92604042866
 30
0.0
 40
0.5
 50
180.0
 51
270.0
  0
ARC
  5
9B82
  8
CONTOUR
 10
-429.6736358966207
 20
305.12604042866
 30
0.0
 40
1.8
 50
314.9999999999998
 51
135.0000000000004
  0
ARC
  5
9B83
  8
CONTOUR
 10
-429.6736358966207
 20
305.12604042866
 30
0.0
 40
4.3
 50
0.000000000000007
 51
90.0
  0
LINE
  5
9B84
  8
CONTOUR
 10
-430.9464281027564
 20
306.3988326347958
 30
0.0
 11
-432.3200825060275
 21
305.0251782315247
 31
0.0
  0
ARC
  5
9B85
  8
CONTOUR
 10
-432.6736358966207
 20
305.378731622118
 30
0.0
 40
0.5
 50
180.0
 51
315.0000000000003
  0
LINE
  5
9B86
  8
CONTOUR
 10
-428.4008436904849
 20
303.8532482225242
 30
0.0
 11
-429.7744980937559
 21
302.4795938192532
 31
0.0
  0
ARC
  5
9B87
  8
CONTOUR
 10
-429.4209447031626
 20
302.12604042866
 30
0.0
 40
0.5
 50
134.9999999999997
 51
270.0
  0
LINE
  5
9B88
  8
CONTOUR
 10
-425.3736358966207
 20
305.12604042866
 30
0.0
 11
-425.3736358966206
 21
302.1260404286599
 31
0.0
  0
LINE
  5
9B89
  8
CONTOUR
 10
-429.6736358966207
 20
309.42604042866
 30
0.0
 11
-432.6736358966207
 21
309.42604042866
 31
0.0
  0
ENDBLK
  8
0
  0
BLOCK
  8
0
  2
18
 70
     0
 10
0.0
 20
0.0
 30
0.0
  0
LINE
  5
9BB7
  8
CONTOUR
 10
1227.392827465683
 20
-77.76073765799788
 30
0.0
 11
1433.392827465683
 21
-77.76073765799799
 31
0.0
  0
LINE
  5
9BB8
  8
CONTOUR
 10
1433.392827465683
 20
-117.760737657998
 30
0.0
 11
1227.392827465683
 21
-117.7607376579979
 31
0.0
  0
LINE
  5
9BB9
  8
CONTOUR
 10
1227.392827465683
 20
-117.7607376579979
 30
0.0
 11
1227.392827465683
 21
-77.76073765799788
 31
0.0
  0
LINE
  5
9BBA
  8
CONTOUR
 10
1254.977827465683
 20
-99.43073765799795
 30
0.0
 11
1251.807827465683
 21
-99.43073765799795
 31
0.0
  0
LINE
  5
9BBB
  8
CONTOUR
 10
1251.807827465683
 20
-99.43073765799795
 30
0.0
 11
1251.807827465683
 21
-94.82073765799782
 31
0.0
  0
LINE
  5
9BBC
  8
CONTOUR
 10
1251.807827465683
 20
-94.82073765799782
 30
0.0
 11
1254.977827465683
 21
-94.82073765799782
 31
0.0
  0
LINE
  5
9BBD
  8
CONTOUR
 10
1254.977827465683
 20
-94.82073765799782
 30
0.0
 11
1254.977827465683
 21
-99.43073765799795
 31
0.0
  0
CIRCLE
  5
9BBE
  8
CONTOUR
 10
1253.392827465683
 20
-97.76073765799788
 30
0.0
 40
1.305
  0
CIRCLE
  5
9BBF
  8
CONTOUR
 10
1253.392827465683
 20
-97.76073765799788
 30
0.0
 40
1.444783720840235
  0
LINE
  5
9BC0
  8
CONTOUR
 10
1239.692827465682
 20
-105.380737657998
 30
0.0
 11
1239.692827465682
 21
-90.14073765799799
 31
0.0
  0
LINE
  5
9BC1
  8
CONTOUR
 10
1237.692827465682
 20
-105.380737657998
 30
0.0
 11
1237.692827465682
 21
-90.14073765799799
 31
0.0
  0
LINE
  5
9BC2
  8
CONTOUR
 10
1239.692827465682
 20
-90.14073765799799
 30
0.0
 11
1232.392827465683
 21
-90.14073765799799
 31
0.0
  0
LINE
  5
9BC3
  8
CONTOUR
 10
1232.392827465683
 20
-105.380737657998
 30
0.0
 11
1232.392827465683
 21
-90.14073765799799
 31
0.0
  0
LINE
  5
9BC4
  8
CONTOUR
 10
1233.392827465683
 20
-105.380737657998
 30
0.0
 11
1233.392827465683
 21
-90.14073765799799
 31
0.0
  0
LINE
  5
9BC5
  8
CONTOUR
 10
1239.692827465682
 20
-105.380737657998
 30
0.0
 11
1232.392827465683
 21
-105.380737657998
 31
0.0
  0
LINE
  5
9BC6
  8
CONTOUR
 10
1241.692827465682
 20
-96.6057376579979
 30
0.0
 11
1241.692827465682
 21
-95.1057376579979
 31
0.0
  0
LINE
  5
9BC7
  8
CONTOUR
 10
1241.692827465682
 20
-96.6057376579979
 30
0.0
 11
1239.692827465682
 21
-96.6057376579979
 31
0.0
  0
LINE
  5
9BC8
  8
CONTOUR
 10
1241.692827465682
 20
-95.1057376579979
 30
0.0
 11
1239.692827465682
 21
-95.1057376579979
 31
0.0
  0
LINE
  5
9BC9
  8
CONTOUR
 10
1241.692827465682
 20
-98.9157376579974
 30
0.0
 11
1241.692827465682
 21
-100.4157376579974
 31
0.0
  0
LINE
  5
9BCA
  8
CONTOUR
 10
1241.692827465682
 20
-98.9157376579974
 30
0.0
 11
1239.692827465682
 21
-98.9157376579974
 31
0.0
  0
LINE
  5
9BCB
  8
CONTOUR
 10
1241.692827465682
 20
-100.4157376579974
 30
0.0
 11
1239.692827465682
 21
-100.4157376579974
 31
0.0
  0
CIRCLE
  5
9BCC
  8
BOWEL
 10
1235.892827465683
 20
-92.04073765799785
 30
0.0
 40
1.3
  0
CIRCLE
  5
9BCD
  8
BOWEL
 10
1235.892827465683
 20
-103.4807376579979
 30
0.0
 40
1.3
  0
TEXT
  5
9BCE
  8
DIM
  6
CONTINUOUS
 10
1228.784428664638
 20
-89.14073765799799
 30
0.0
 40
5.0
  1
+
  0
TEXT
  5
9BCF
  8
DIM
  6
CONTINUOUS
 10
1228.784428664638
 20
-110.3508347072543
 30
0.0
 40
5.0
  1
-
  0
LINE
  5
9BD0
  8
CONTOUR
 10
1278.977827465683
 20
-99.43073765799795
 30
0.0
 11
1275.807827465683
 21
-99.43073765799795
 31
0.0
  0
LINE
  5
9BD1
  8
CONTOUR
 10
1275.807827465683
 20
-99.43073765799795
 30
0.0
 11
1275.807827465683
 21
-94.82073765799782
 31
0.0
  0
LINE
  5
9BD2
  8
CONTOUR
 10
1275.807827465683
 20
-94.82073765799782
 30
0.0
 11
1278.977827465683
 21
-94.82073765799782
 31
0.0
  0
LINE
  5
9BD3
  8
CONTOUR
 10
1278.977827465683
 20
-94.82073765799782
 30
0.0
 11
1278.977827465683
 21
-99.43073765799795
 31
0.0
  0
CIRCLE
  5
9BD4
  8
CONTOUR
 10
1277.392827465683
 20
-97.76073765799788
 30
0.0
 40
1.305
  0
CIRCLE
  5
9BD5
  8
CONTOUR
 10
1277.392827465683
 20
-97.76073765799788
 30
0.0
 40
1.444783720840235
  0
LINE
  5
9BD6
  8
CONTOUR
 10
1302.977827465683
 20
-99.43073765799795
 30
0.0
 11
1299.807827465683
 21
-99.43073765799795
 31
0.0
  0
LINE
  5
9BD7
  8
CONTOUR
 10
1299.807827465683
 20
-99.43073765799795
 30
0.0
 11
1299.807827465683
 21
-94.82073765799782
 31
0.0
  0
LINE
  5
9BD8
  8
CONTOUR
 10
1299.807827465683
 20
-94.82073765799782
 30
0.0
 11
1302.977827465683
 21
-94.82073765799782
 31
0.0
  0
LINE
  5
9BD9
  8
CONTOUR
 10
1302.977827465683
 20
-94.82073765799782
 30
0.0
 11
1302.977827465683
 21
-99.43073765799795
 31
0.0
  0
CIRCLE
  5
9BDA
  8
CONTOUR
 10
1301.392827465683
 20
-97.76073765799788
 30
0.0
 40
1.305
  0
CIRCLE
  5
9BDB
  8
CONTOUR
 10
1301.392827465683
 20
-97.76073765799788
 30
0.0
 40
1.444783720840235
  0
LINE
  5
9BDC
  8
CONTOUR
 10
1326.977827465683
 20
-99.43073765799795
 30
0.0
 11
1323.807827465683
 21
-99.43073765799795
 31
0.0
  0
LINE
  5
9BDD
  8
CONTOUR
 10
1323.807827465683
 20
-99.43073765799795
 30
0.0
 11
1323.807827465683
 21
-94.82073765799782
 31
0.0
  0
LINE
  5
9BDE
  8
CONTOUR
 10
1323.807827465683
 20
-94.82073765799782
 30
0.0
 11
1326.977827465683
 21
-94.82073765799782
 31
0.0
  0
LINE
  5
9BDF
  8
CONTOUR
 10
1326.977827465683
 20
-94.82073765799782
 30
0.0
 11
1326.977827465683
 21
-99.43073765799795
 31
0.0
  0
CIRCLE
  5
9BE0
  8
CONTOUR
 10
1325.392827465683
 20
-97.76073765799788
 30
0.0
 40
1.305
  0
CIRCLE
  5
9BE1
  8
CONTOUR
 10
1325.392827465683
 20
-97.76073765799788
 30
0.0
 40
1.444783720840235
  0
LINE
  5
9BE2
  8
CONTOUR
 10
1350.977827465683
 20
-99.43073765799795
 30
0.0
 11
1347.807827465683
 21
-99.43073765799795
 31
0.0
  0
LINE
  5
9BE3
  8
CONTOUR
 10
1347.807827465683
 20
-99.43073765799795
 30
0.0
 11
1347.807827465683
 21
-94.82073765799782
 31
0.0
  0
LINE
  5
9BE4
  8
CONTOUR
 10
1347.807827465683
 20
-94.82073765799782
 30
0.0
 11
1350.977827465683
 21
-94.82073765799782
 31
0.0
  0
LINE
  5
9BE5
  8
CONTOUR
 10
1350.977827465683
 20
-94.82073765799782
 30
0.0
 11
1350.977827465683
 21
-99.43073765799795
 31
0.0
  0
CIRCLE
  5
9BE6
  8
CONTOUR
 10
1349.392827465683
 20
-97.76073765799788
 30
0.0
 40
1.305
  0
CIRCLE
  5
9BE7
  8
CONTOUR
 10
1349.392827465683
 20
-97.76073765799788
 30
0.0
 40
1.444783720840235
  0
LINE
  5
9BE8
  8
CONTOUR
 10
1374.977827465683
 20
-99.43073765799795
 30
0.0
 11
1371.807827465683
 21
-99.43073765799795
 31
0.0
  0
LINE
  5
9BE9
  8
CONTOUR
 10
1371.807827465683
 20
-99.43073765799795
 30
0.0
 11
1371.807827465683
 21
-94.82073765799782
 31
0.0
  0
LINE
  5
9BEA
  8
CONTOUR
 10
1371.807827465683
 20
-94.82073765799782
 30
0.0
 11
1374.977827465683
 21
-94.82073765799782
 31
0.0
  0
LINE
  5
9BEB
  8
CONTOUR
 10
1374.977827465683
 20
-94.82073765799782
 30
0.0
 11
1374.977827465683
 21
-99.43073765799795
 31
0.0
  0
CIRCLE
  5
9BEC
  8
CONTOUR
 10
1373.392827465683
 20
-97.76073765799788
 30
0.0
 40
1.305
  0
CIRCLE
  5
9BED
  8
CONTOUR
 10
1373.392827465683
 20
-97.76073765799788
 30
0.0
 40
1.444783720840235
  0
LINE
  5
9BEE
  8
CONTOUR
 10
1398.977827465683
 20
-99.43073765799795
 30
0.0
 11
1395.807827465683
 21
-99.43073765799795
 31
0.0
  0
LINE
  5
9BEF
  8
CONTOUR
 10
1395.807827465683
 20
-99.43073765799795
 30
0.0
 11
1395.807827465683
 21
-94.82073765799782
 31
0.0
  0
LINE
  5
9BF0
  8
CONTOUR
 10
1395.807827465683
 20
-94.82073765799782
 30
0.0
 11
1398.977827465683
 21
-94.82073765799782
 31
0.0
  0
LINE
  5
9BF1
  8
CONTOUR
 10
1398.977827465683
 20
-94.82073765799782
 30
0.0
 11
1398.977827465683
 21
-99.43073765799795
 31
0.0
  0
CIRCLE
  5
9BF2
  8
CONTOUR
 10
1397.392827465683
 20
-97.76073765799788
 30
0.0
 40
1.305
  0
CIRCLE
  5
9BF3
  8
CONTOUR
 10
1397.392827465683
 20
-97.76073765799788
 30
0.0
 40
1.444783720840235
  0
LINE
  5
9BF4
  8
CONTOUR
 10
1422.977827465683
 20
-99.43073765799795
 30
0.0
 11
1419.807827465683
 21
-99.43073765799795
 31
0.0
  0
LINE
  5
9BF5
  8
CONTOUR
 10
1419.807827465683
 20
-99.43073765799795
 30
0.0
 11
1419.807827465683
 21
-94.82073765799782
 31
0.0
  0
LINE
  5
9BF6
  8
CONTOUR
 10
1419.807827465683
 20
-94.82073765799782
 30
0.0
 11
1422.977827465683
 21
-94.82073765799782
 31
0.0
  0
LINE
  5
9BF7
  8
CONTOUR
 10
1422.977827465683
 20
-94.82073765799782
 30
0.0
 11
1422.977827465683
 21
-99.43073765799795
 31
0.0
  0
CIRCLE
  5
9BF8
  8
CONTOUR
 10
1421.392827465683
 20
-97.76073765799788
 30
0.0
 40
1.305
  0
CIRCLE
  5
9BF9
  8
CONTOUR
 10
1421.392827465683
 20
-97.76073765799788
 30
0.0
 40
1.444783720840235
  0
LINE
  5
9BFA
  8
CONTOUR
 10
1433.392827465683
 20
-77.76073765799802
 30
0.0
 11
1433.392827465683
 21
-117.760737657998
 31
0.0
  0
CIRCLE
  5
9BFB
  8
CONTOUR
 10
1265.392827465683
 20
-97.76073765799788
 30
0.0
 40
1.75
  0
CIRCLE
  5
9BFC
  8
CONTOUR
 10
1313.392827465683
 20
-97.76073765799788
 30
0.0
 40
1.75
  0
CIRCLE
  5
9BFD
  8
CONTOUR
 10
1361.392827465683
 20
-97.76073765799788
 30
0.0
 40
1.75
  0
CIRCLE
  5
9BFE
  8
CONTOUR
 10
1409.392827465683
 20
-97.76073765799788
 30
0.0
 40
1.75
  0
LINE
  5
9BFF
  8
CONTOUR
 10
1433.392827465683
 20
-117.7607376579979
 30
0.0
 11
1433.392827465683
 21
-77.76073765799791
 31
0.0
  0
INSERT
  5
9C00
  8
MARK
  2
801-83-002-40-001101
 10
-18.64932129700583
 20
279.7255050644097
 30
0.0
  0
INSERT
  5
9C01
  8
MARK
  2
801-83-002-40-001101
 10
-18.64932129700583
 20
-475.2469803804056
 30
0.0
 41
-1.0
 50
180.0
  0
ENDBLK
  8
0
  0
BLOCK
  8
0
  2
801-83-002-40-001101
 70
     0
 10
0.0
 20
0.0
 30
0.0
  0
LINE
  5
9C2E
  8
CONTOUR
 10
1444.542148762688
 20
-365.0262427224077
 30
0.0
 11
1444.542148762688
 21
-359.9462427224077
 31
0.0
  0
LINE
  5
9C2F
  8
CONTOUR
 10
1451.542148762688
 20
-359.9462427224077
 30
0.0
 11
1444.542148762688
 21
-359.9462427224077
 31
0.0
  0
LINE
  5
9C30
  8
CONTOUR
 10
1451.542148762688
 20
-362.4862427224077
 30
0.0
 11
1444.542148762688
 21
-362.4862427224077
 31
0.0
  0
LINE
  5
9C31
  8
CONTOUR
 10
1451.542148762688
 20
-365.0262427224077
 30
0.0
 11
1444.542148762688
 21
-365.0262427224077
 31
0.0
  0
LINE
  5
9C32
  8
CONTOUR
 10
1451.542148762688
 20
-365.0262427224077
 30
0.0
 11
1451.542148762688
 21
-359.9462427224077
 31
0.0
  0
LINE
  5
9C33
  8
CONTOUR
 10
1439.642148762688
 20
-364.0662427224077
 30
0.0
 11
1439.642148762688
 21
-363.4462427224078
 31
0.0
  0
LINE
  5
9C34
  8
CONTOUR
 10
1444.542148762688
 20
-364.0662427224077
 30
0.0
 11
1439.642148762688
 21
-364.0662427224077
 31
0.0
  0
LINE
  5
9C35
  8
CONTOUR
 10
1444.542148762688
 20
-363.4462427224077
 30
0.0
 11
1439.642148762688
 21
-363.4462427224078
 31
0.0
  0
LINE
  5
9C36
  8
CONTOUR
 10
1439.642148762688
 20
-361.5262427224077
 30
0.0
 11
1439.642148762688
 21
-360.9062427224077
 31
0.0
  0
LINE
  5
9C37
  8
CONTOUR
 10
1444.542148762688
 20
-361.5262427224077
 30
0.0
 11
1439.642148762688
 21
-361.5262427224077
 31
0.0
  0
LINE
  5
9C38
  8
CONTOUR
 10
1444.542148762688
 20
-360.9062427224077
 30
0.0
 11
1439.642148762688
 21
-360.9062427224077
 31
0.0
  0
ENDBLK
  8
0
  0
BLOCK
  8
0
  2
BB02-JS
 70
     0
 10
0.0
 20
0.0
 30
0.0
  0
LINE
  5
BE0B
  8
CONTOUR
 10
477.8947703028152
 20
714.0324202470929
 30
0.0
 11
477.8947703028152
 21
708.4524202470928
 31
0.0
  0
LINE
  5
BE0C
  8
CONTOUR
 10
477.8947703028152
 20
708.4524202470928
 30
0.0
 11
486.3947703028152
 21
708.4524202470928
 31
0.0
  0
LINE
  5
BE0D
  8
CONTOUR
 10
486.3947703028152
 20
714.0324202470929
 30
0.0
 11
486.3947703028152
 21
708.4524202470928
 31
0.0
  0
LINE
  5
BE0E
  8
CONTOUR
 10
477.8947703028152
 20
714.0324202470929
 30
0.0
 11
486.3947703028152
 21
714.0324202470929
 31
0.0
  0
LINE
  5
BE0F
  8
CONTOUR
 10
486.3947703028152
 20
710.2724202470929
 30
0.0
 11
491.3947703028152
 21
710.2724202470929
 31
0.0
  0
LINE
  5
BE10
  8
CONTOUR
 10
486.3947703028152
 20
709.672420247093
 30
0.0
 11
491.3947703028152
 21
709.672420247093
 31
0.0
  0
LINE
  5
BE11
  8
CONTOUR
 10
491.3947703028152
 20
709.672420247093
 30
0.0
 11
491.3947703028152
 21
710.272420247093
 31
0.0
  0
LINE
  5
BE12
  8
CONTOUR
 10
486.3947703028152
 20
712.2124202470931
 30
0.0
 11
491.3947703028152
 21
712.2124202470931
 31
0.0
  0
LINE
  5
BE13
  8
CONTOUR
 10
486.3947703028152
 20
712.812420247093
 30
0.0
 11
491.3947703028152
 21
712.812420247093
 31
0.0
  0
LINE
  5
BE14
  8
CONTOUR
 10
491.3947703028152
 20
712.812420247093
 30
0.0
 11
491.3947703028152
 21
712.2124202470931
 31
0.0
  0
ENDBLK
  8
0
  0
BLOCK
  8
0
  2
GENAXEH
 70
     0
 10
0.0
 20
0.0
 30
0.0
  0
LINE
  5
C270
  8
0
 10
-1.0
 20
0.0
 30
0.0
 11
1.0
 21
0.0
 31
0.0
  0
ENDBLK
  8
0
  0
BLOCK
  8
0
  2
*U21
 70
     1
 10
0.0
 20
0.0
 30
0.0
  0
ENDBLK
  8
0
  0
BLOCK
  8
0
  2
*D22
 70
     1
 10
0.0
 20
0.0
 30
0.0
  0
LINE
  5
10EF5
  8
MARK
  6
BYBLOCK
 10
57.61163815273142
 20
315.4325021120606
 30
0.0
 11
21.28096274201071
 21
315.4325021120606
 31
0.0
  0
LINE
  5
10EF6
  8
MARK
  6
BYBLOCK
 10
57.61163815273142
 20
288.4325021120605
 30
0.0
 11
21.28096274201071
 21
288.4325021120605
 31
0.0
  0
LINE
  5
10EF7
  8
MARK
  6
BYBLOCK
 10
23.68096274201071
 20
308.4325021120606
 30
0.0
 11
23.68096274201071
 21
295.4325021120605
 31
0.0
  0
INSERT
  5
10EF8
  8
MARK
  2
_OPEN30
 10
23.68096274201071
 20
315.4325021120606
 30
0.0
 41
7.0
 42
7.0
 43
7.0
 50
90.0
  0
INSERT
  5
10EF9
  8
MARK
  2
_OPEN30
 10
23.68096274201071
 20
288.4325021120605
 30
0.0
 41
7.0
 42
7.0
 43
7.0
 50
270.0
  0
TEXT
  5
10EFA
  8
MARK
  6
CONTINUOUS
 62
     3
 10
21.28096274201079
 20
296.0991687787272
 30
0.0
 40
7.0
  1
27
 50
90.0
  0
POINT
  5
10EFB
  8
DEFPOINTS
 62
     0
 10
60.01163815273142
 20
315.4325021120606
 30
0.0
  0
POINT
  5
10EFC
  8
DEFPOINTS
 62
     0
 10
60.01163815273142
 20
288.4325021120605
 30
0.0
  0
POINT
  5
10EFD
  8
DEFPOINTS
 62
     0
 10
23.68096274201071
 20
288.4325021120605
 30
0.0
  0
ENDBLK
  8
0
  0
BLOCK
  8
0
  2
*D23
 70
     1
 10
0.0
 20
0.0
 30
0.0
  0
LINE
  5
10EFE
  8
MARK
  6
BYBLOCK
 10
68.0116381527314
 20
317.8325021120605
 30
0.0
 11
68.0116381527314
 21
340.2351165926031
 31
0.0
  0
LINE
  5
10EFF
  8
MARK
  6
BYBLOCK
 10
62.01163815273139
 20
317.8325021120605
 30
0.0
 11
62.01163815273139
 21
340.2351165926031
 31
0.0
  0
LINE
  5
10F00
  8
MARK
  6
BYBLOCK
 10
75.0116381527314
 20
337.8351165926031
 30
0.0
 11
82.0116381527314
 21
337.8351165926031
 31
0.0
  0
LINE
  5
10F01
  8
MARK
  6
BYBLOCK
 10
55.01163815273139
 20
337.8351165926031
 30
0.0
 11
38.54497148606472
 21
337.8351165926031
 31
0.0
  0
LINE
  5
10F02
  8
MARK
  6
BYBLOCK
 10
68.0116381527314
 20
337.8351165926031
 30
0.0
 11
62.01163815273139
 21
337.8351165926031
 31
0.0
  0
INSERT
  5
10F03
  8
MARK
  2
_OPEN30
 10
68.0116381527314
 20
337.8351165926031
 30
0.0
 41
7.0
 42
7.0
 43
7.0
 50
180.0
  0
INSERT
  5
10F04
  8
MARK
  2
_OPEN30
 10
62.01163815273139
 20
337.8351165926031
 30
0.0
 41
7.0
 42
7.0
 43
7.0
  0
TEXT
  5
10F05
  8
MARK
  6
CONTINUOUS
 62
     3
 10
40.94497148606472
 20
340.2351165926031
 30
0.0
 40
7.0
  1
6
  0
POINT
  5
10F06
  8
DEFPOINTS
 62
     0
 10
68.0116381527314
 20
315.4325021120605
 30
0.0
  0
POINT
  5
10F07
  8
DEFPOINTS
 62
     0
 10
62.01163815273139
 20
315.4325021120605
 30
0.0
  0
POINT
  5
10F08
  8
DEFPOINTS
 62
     0
 10
62.01163815273139
 20
337.8351165926031
 30
0.0
  0
ENDBLK
  8
0
  0
BLOCK
  8
0
  2
*D24
 70
     1
 10
0.0
 20
0.0
 30
0.0
  0
LINE
  5
10F09
  8
MARK
  6
BYBLOCK
 10
61.86163815273143
 20
290.6825021120603
 30
0.0
 11
42.30138386898727
 21
290.6825021120603
 31
0.0
  0
LINE
  5
10F0A
  8
MARK
  6
BYBLOCK
 10
61.86163815273142
 20
286.1825021120603
 30
0.0
 11
42.30138386898727
 21
286.1825021120603
 31
0.0
  0
LINE
  5
10F0B
  8
MARK
  6
BYBLOCK
 10
44.70138386898726
 20
297.6825021120603
 30
0.0
 11
44.70138386898726
 21
304.6825021120603
 31
0.0
  0
LINE
  5
10F0C
  8
MARK
  6
BYBLOCK
 10
44.70138386898726
 20
279.1825021120603
 30
0.0
 11
44.70138386898727
 21
253.3825021120603
 31
0.0
  0
LINE
  5
10F0D
  8
MARK
  6
BYBLOCK
 10
44.70138386898726
 20
290.6825021120603
 30
0.0
 11
44.70138386898726
 21
286.1825021120603
 31
0.0
  0
INSERT
  5
10F0E
  8
MARK
  2
_OPEN30
 10
44.70138386898726
 20
290.6825021120603
 30
0.0
 41
7.0
 42
7.0
 43
7.0
 50
270.0
  0
INSERT
  5
10F0F
  8
MARK
  2
_OPEN30
 10
44.70138386898726
 20
286.1825021120603
 30
0.0
 41
7.0
 42
7.0
 43
7.0
 50
90.0
  0
TEXT
  5
10F10
  8
MARK
  6
CONTINUOUS
 62
     3
 10
42.30138386898733
 20
255.7825021120603
 30
0.0
 40
7.0
  1
4.5
 50
90.0
  0
POINT
  5
10F11
  8
DEFPOINTS
 62
     0
 10
64.26163815273142
 20
290.6825021120603
 30
0.0
  0
POINT
  5
10F12
  8
DEFPOINTS
 62
     0
 10
64.26163815273142
 20
286.1825021120603
 30
0.0
  0
POINT
  5
10F13
  8
DEFPOINTS
 62
     0
 10
44.70138386898726
 20
286.1825021120603
 30
0.0
  0
ENDBLK
  8
0
  0
BLOCK
  8
0
  2
*D25
 70
     1
 10
0.0
 20
0.0
 30
0.0
  0
LINE
  5
11E1C
  8
MARK
  6
BYBLOCK
 10
65.0116381527314
 20
322.0825021120602
 30
0.0
 11
65.0116381527314
 21
359.3901424779439
 31
0.0
  0
LINE
  5
11E1D
  8
MARK
  6
BYBLOCK
 10
355.0116381527314
 20
322.0825021120602
 30
0.0
 11
355.0116381527314
 21
359.3901424779439
 31
0.0
  0
LINE
  5
11E1E
  8
MARK
  6
BYBLOCK
 10
72.0116381527314
 20
356.9901424779439
 30
0.0
 11
348.0116381527314
 21
356.9901424779439
 31
0.0
  0
INSERT
  5
11E1F
  8
MARK
  2
_OPEN30
 10
65.0116381527314
 20
356.9901424779439
 30
0.0
 41
7.0
 42
7.0
 43
7.0
 50
180.0
  0
INSERT
  5
11E20
  8
MARK
  2
_OPEN30
 10
355.0116381527314
 20
356.9901424779439
 30
0.0
 41
7.0
 42
7.0
 43
7.0
  0
TEXT
  5
11E21
  8
MARK
  6
CONTINUOUS
 62
     3
 10
200.0949714860647
 20
359.3901424779439
 30
0.0
 40
7.0
  1
1160
  0
POINT
  5
11E22
  8
DEFPOINTS
 62
     0
 10
65.0116381527314
 20
319.6825021120603
 30
0.0
  0
POINT
  5
11E23
  8
DEFPOINTS
 62
     0
 10
355.0116381527314
 20
319.6825021120603
 30
0.0
  0
POINT
  5
11E24
  8
DEFPOINTS
 62
     0
 10
355.0116381527314
 20
356.9901424779439
 30
0.0
  0
ENDBLK
  8
0
  0
BLOCK
  8
0
  2
*D26
 70
     1
 10
0.0
 20
0.0
 30
0.0
  0
LINE
  5
10F1D
  8
MARK
  6
BYBLOCK
 10
99.0116381527314
 20
187.05298427722
 30
0.0
 11
99.0116381527314
 21
164.039441961559
 31
0.0
  0
LINE
  5
10F1E
  8
MARK
  6
BYBLOCK
 10
60.01163815273139
 20
187.05298427722
 30
0.0
 11
60.01163815273139
 21
164.039441961559
 31
0.0
  0
LINE
  5
10F1F
  8
MARK
  6
BYBLOCK
 10
92.0116381527314
 20
166.4394419615591
 30
0.0
 11
67.0116381527314
 21
166.4394419615591
 31
0.0
  0
INSERT
  5
10F20
  8
MARK
  2
_OPEN30
 10
99.0116381527314
 20
166.4394419615591
 30
0.0
 41
7.0
 42
7.0
 43
7.0
  0
INSERT
  5
10F21
  8
MARK
  2
_OPEN30
 10
60.01163815273139
 20
166.4394419615591
 30
0.0
 41
7.0
 42
7.0
 43
7.0
 50
180.0
  0
TEXT
  5
10F22
  8
MARK
  6
CONTINUOUS
 62
     3
 10
73.67830481939806
 20
168.8394419615591
 30
0.0
 40
7.0
  1
39
  0
POINT
  5
10F23
  8
DEFPOINTS
 62
     0
 10
99.0116381527314
 20
189.4529842772201
 30
-0.0000000000001137
  0
POINT
  5
10F24
  8
DEFPOINTS
 62
     0
 10
60.01163815273139
 20
189.4529842772201
 30
-0.0000000000001137
  0
POINT
  5
10F25
  8
DEFPOINTS
 62
     0
 10
60.01163815273139
 20
166.4394419615591
 30
0.0
  0
ENDBLK
  8
0
  0
BLOCK
  8
0
  2
*D27
 70
     1
 10
0.0
 20
0.0
 30
0.0
  0
LINE
  5
11E2E
  8
MARK
  6
BYBLOCK
 10
99.0116381527314
 20
187.05298427722
 30
0.0
 11
99.0116381527314
 21
164.039441961559
 31
0.0
  0
LINE
  5
11E2F
  8
MARK
  6
BYBLOCK
 10
321.0116381527314
 20
187.05298427722
 30
0.0
 11
321.0116381527314
 21
164.039441961559
 31
0.0
  0
LINE
  5
11E30
  8
MARK
  6
BYBLOCK
 10
106.0116381527314
 20
166.4394419615591
 30
0.0
 11
314.0116381527314
 21
166.4394419615591
 31
0.0
  0
INSERT
  5
11E31
  8
MARK
  2
_OPEN30
 10
99.0116381527314
 20
166.4394419615591
 30
0.0
 41
7.0
 42
7.0
 43
7.0
 50
180.0
  0
INSERT
  5
11E32
  8
MARK
  2
_OPEN30
 10
321.0116381527314
 20
166.4394419615591
 30
0.0
 41
7.0
 42
7.0
 43
7.0
  0
TEXT
  5
11E33
  8
MARK
  6
CONTINUOUS
 62
     3
 10
198.9283048193981
 20
168.8394419615591
 30
0.0
 40
7.0
  1
1092
  0
POINT
  5
11E34
  8
DEFPOINTS
 62
     0
 10
99.0116381527314
 20
189.4529842772201
 30
-0.0000000000001137
  0
POINT
  5
11E35
  8
DEFPOINTS
 62
     0
 10
321.0116381527314
 20
189.45298427722
 30
-0.0000000000000068
  0
POINT
  5
11E36
  8
DEFPOINTS
 62
     0
 10
321.0116381527314
 20
166.4394419615591
 30
0.0
  0
ENDBLK
  8
0
  0
BLOCK
  8
0
  2
*D28
 70
     1
 10
0.0
 20
0.0
 30
0.0
  0
LINE
  5
10F2F
  8
MARK
  6
BYBLOCK
 10
321.0116381527314
 20
187.05298427722
 30
0.0
 11
321.0116381527314
 21
164.039441961559
 31
0.0
  0
LINE
  5
10F30
  8
MARK
  6
BYBLOCK
 10
360.0116381527314
 20
187.05298427722
 30
0.0
 11
360.0116381527314
 21
164.039441961559
 31
0.0
  0
LINE
  5
10F31
  8
MARK
  6
BYBLOCK
 10
328.0116381527314
 20
166.4394419615591
 30
0.0
 11
353.0116381527314
 21
166.4394419615591
 31
0.0
  0
INSERT
  5
10F32
  8
MARK
  2
_OPEN30
 10
321.0116381527314
 20
166.4394419615591
 30
0.0
 41
7.0
 42
7.0
 43
7.0
 50
180.0
  0
INSERT
  5
10F33
  8
MARK
  2
_OPEN30
 10
360.0116381527314
 20
166.4394419615591
 30
0.0
 41
7.0
 42
7.0
 43
7.0
  0
TEXT
  5
10F34
  8
MARK
  6
CONTINUOUS
 62
     3
 10
334.6783048193981
 20
168.8394419615591
 30
0.0
 40
7.0
  1
39
  0
POINT
  5
10F35
  8
DEFPOINTS
 62
     0
 10
321.0116381527314
 20
189.45298427722
 30
-0.0000000000001137
  0
POINT
  5
10F36
  8
DEFPOINTS
 62
     0
 10
360.0116381527314
 20
189.4529842772201
 30
-0.0000000000002206
  0
POINT
  5
10F37
  8
DEFPOINTS
 62
     0
 10
360.0116381527314
 20
166.4394419615591
 30
0.0
  0
ENDBLK
  8
0
  0
BLOCK
  8
0
  2
*D29
 70
     1
 10
0.0
 20
0.0
 30
0.0
  0
LINE
  5
11E0A
  8
MARK
  6
BYBLOCK
 10
360.0116381527314
 20
187.05298427722
 30
0.0
 11
360.0116381527314
 21
141.1610745502573
 31
0.0
  0
LINE
  5
11E0B
  8
MARK
  6
BYBLOCK
 10
60.01163815273139
 20
187.05298427722
 30
0.0
 11
60.01163815273139
 21
141.1610745502573
 31
0.0
  0
LINE
  5
11E0C
  8
MARK
  6
BYBLOCK
 10
353.0116381527314
 20
143.5610745502573
 30
0.0
 11
67.0116381527314
 21
143.5610745502573
 31
0.0
  0
INSERT
  5
11E0D
  8
MARK
  2
_OPEN30
 10
360.0116381527314
 20
143.5610745502573
 30
0.0
 41
7.0
 42
7.0
 43
7.0
  0
INSERT
  5
11E0E
  8
MARK
  2
_OPEN30
 10
60.01163815273139
 20
143.5610745502573
 30
0.0
 41
7.0
 42
7.0
 43
7.0
 50
180.0
  0
TEXT
  5
11E0F
  8
MARK
  6
CONTINUOUS
 62
     3
 10
200.0949714860647
 20
145.9610745502573
 30
0.0
 40
7.0
  1
1170
  0
POINT
  5
11E10
  8
DEFPOINTS
 62
     0
 10
360.0116381527314
 20
189.4529842772201
 30
-0.0000000000001137
  0
POINT
  5
11E11
  8
DEFPOINTS
 62
     0
 10
60.01163815273139
 20
189.4529842772201
 30
-0.0000000000001137
  0
POINT
  5
11E12
  8
DEFPOINTS
 62
     0
 10
60.01163815273139
 20
143.5610745502573
 30
0.0
  0
ENDBLK
  8
0
  0
BLOCK
  8
0
  2
*D30
 70
     1
 10
0.0
 20
0.0
 30
0.0
  0
LINE
  5
10F41
  8
MARK
  6
BYBLOCK
 10
57.61163815273142
 20
189.4529842772201
 30
0.0
 11
21.28096274201073
 21
189.4529842772201
 31
0.0
  0
LINE
  5
10F42
  8
MARK
  6
BYBLOCK
 10
70.61163815273142
 20
219.9529842772204
 30
0.0
 11
21.28096274201072
 21
219.9529842772204
 31
0.0
  0
LINE
  5
10F43
  8
MARK
  6
BYBLOCK
 10
23.68096274201072
 20
196.4529842772201
 30
0.0
 11
23.68096274201072
 21
212.9529842772204
 31
0.0
  0
INSERT
  5
10F44
  8
MARK
  2
_OPEN30
 10
23.68096274201072
 20
189.4529842772201
 30
0.0
 41
7.0
 42
7.0
 43
7.0
 50
270.0
  0
INSERT
  5
10F45
  8
MARK
  2
_OPEN30
 10
23.68096274201071
 20
219.9529842772204
 30
0.0
 41
7.0
 42
7.0
 43
7.0
 50
90.0
  0
TEXT
  5
10F46
  8
MARK
  6
CONTINUOUS
 62
     3
 10
21.28096274201079
 20
194.7863176105535
 30
0.0
 40
7.0
  1
30.5
 50
90.0
  0
POINT
  5
10F47
  8
DEFPOINTS
 62
     0
 10
60.01163815273142
 20
189.4529842772201
 30
-0.0000000000001137
  0
POINT
  5
10F48
  8
DEFPOINTS
 62
     0
 10
73.01163815273142
 20
219.9529842772204
 30
-0.0000000000001069
  0
POINT
  5
10F49
  8
DEFPOINTS
 62
     0
 10
23.68096274201071
 20
219.9529842772204
 30
0.0
  0
ENDBLK
  8
0
  0
BLOCK
  8
0
  2
*D31
 70
     1
 10
0.0
 20
0.0
 30
0.0
  0
LINE
  5
10F4A
  8
MARK
  6
BYBLOCK
 10
475.3357387293489
 20
189.4529842772201
 30
0.0
 11
457.1353387136039
 21
189.4529842772201
 31
0.0
  0
LINE
  5
10F4B
  8
MARK
  6
BYBLOCK
 10
475.3357387293498
 20
191.4529842772201
 30
0.0
 11
457.1353387136039
 21
191.4529842772201
 31
0.0
  0
LINE
  5
10F4C
  8
MARK
  6
BYBLOCK
 10
459.5353387136038
 20
182.4529842772201
 30
0.0
 11
459.5353387136038
 21
175.4529842772201
 31
0.0
  0
LINE
  5
10F4D
  8
MARK
  6
BYBLOCK
 10
459.5353387136038
 20
198.4529842772201
 30
0.0
 11
459.5353387136038
 21
205.4529842772201
 31
0.0
  0
LINE
  5
10F4E
  8
MARK
  6
BYBLOCK
 10
459.5353387136038
 20
189.4529842772201
 30
0.0
 11
459.5353387136038
 21
191.4529842772201
 31
0.0
  0
INSERT
  5
10F4F
  8
MARK
  2
_OPEN30
 10
459.5353387136038
 20
189.4529842772201
 30
0.0
 41
7.0
 42
7.0
 43
7.0
 50
90.0
  0
INSERT
  5
10F50
  8
MARK
  2
_OPEN30
 10
459.5353387136038
 20
191.4529842772201
 30
0.0
 41
7.0
 42
7.0
 43
7.0
 50
270.0
  0
TEXT
  5
10F51
  8
MARK
  6
CONTINUOUS
 62
     3
 10
457.1353387136038
 20
188.1196509438866
 30
0.0
 40
7.0
  1
2
 50
90.0
  0
POINT
  5
10F52
  8
DEFPOINTS
 62
     0
 10
477.7357387293489
 20
189.4529842772201
 30
-0.0000000000001137
  0
POINT
  5
10F53
  8
DEFPOINTS
 62
     0
 10
477.7357387293498
 20
191.4529842772201
 30
-0.0000000000001137
  0
POINT
  5
10F54
  8
DEFPOINTS
 62
     0
 10
459.5353387136038
 20
191.4529842772201
 30
0.0
  0
ENDBLK
  8
0
  0
BLOCK
  8
0
  2
*D32
 70
     1
 10
0.0
 20
0.0
 30
0.0
  0
LINE
  5
10F55
  8
MARK
  6
BYBLOCK
 10
477.7357387293487
 20
187.05298427722
 30
0.0
 11
477.7357387293487
 21
164.039441961559
 31
0.0
  0
LINE
  5
10F56
  8
MARK
  6
BYBLOCK
 10
518.1357387293501
 20
187.05298427722
 30
0.0
 11
518.1357387293501
 21
164.039441961559
 31
0.0
  0
LINE
  5
10F57
  8
MARK
  6
BYBLOCK
 10
484.7357387293487
 20
166.4394419615591
 30
0.0
 11
511.1357387293501
 21
166.4394419615591
 31
0.0
  0
INSERT
  5
10F58
  8
MARK
  2
_OPEN30
 10
477.7357387293487
 20
166.4394419615591
 30
0.0
 41
7.0
 42
7.0
 43
7.0
 50
180.0
  0
INSERT
  5
10F59
  8
MARK
  2
_OPEN30
 10
518.1357387293501
 20
166.4394419615591
 30
0.0
 41
7.0
 42
7.0
 43
7.0
  0
TEXT
  5
10F5A
  8
MARK
  6
CONTINUOUS
 62
     3
 10
488.0190720626827
 20
168.8394419615591
 30
0.0
 40
7.0
  1
40.4
  0
POINT
  5
10F5B
  8
DEFPOINTS
 62
     0
 10
477.7357387293487
 20
189.45298427722
 30
-0.0000000000001137
  0
POINT
  5
10F5C
  8
DEFPOINTS
 62
     0
 10
518.1357387293501
 20
189.45298427722
 30
-0.0000000000001137
  0
POINT
  5
10F5D
  8
DEFPOINTS
 62
     0
 10
518.1357387293501
 20
166.4394419615591
 30
0.0
  0
ENDBLK
  8
0
  0
BLOCK
  8
0
  2
*D33
 70
     1
 10
0.0
 20
0.0
 30
0.0
  0
LINE
  5
10F5E
  8
MARK
  6
BYBLOCK
 10
520.5357387293503
 20
189.4529842772201
 30
0.0
 11
545.7530094367863
 21
189.4529842772201
 31
0.0
  0
LINE
  5
10F5F
  8
MARK
  6
BYBLOCK
 10
512.37419747935
 20
203.6529842772204
 30
0.0
 11
545.7530094367863
 21
203.6529842772204
 31
0.0
  0
LINE
  5
10F60
  8
MARK
  6
BYBLOCK
 10
543.3530094367864
 20
182.4529842772201
 30
0.0
 11
543.3530094367864
 21
175.4529842772201
 31
0.0
  0
LINE
  5
10F61
  8
MARK
  6
BYBLOCK
 10
543.3530094367864
 20
210.6529842772204
 30
0.0
 11
543.3530094367864
 21
241.1196509438871
 31
0.0
  0
LINE
  5
10F62
  8
MARK
  6
BYBLOCK
 10
543.3530094367864
 20
189.4529842772201
 30
0.0
 11
543.3530094367864
 21
203.6529842772204
 31
0.0
  0
INSERT
  5
10F63
  8
MARK
  2
_OPEN30
 10
543.3530094367864
 20
189.4529842772201
 30
0.0
 41
7.0
 42
7.0
 43
7.0
 50
90.0
  0
INSERT
  5
10F64
  8
MARK
  2
_OPEN30
 10
543.3530094367864
 20
203.6529842772204
 30
0.0
 41
7.0
 42
7.0
 43
7.0
 50
270.0
  0
TEXT
  5
10F65
  8
MARK
  6
CONTINUOUS
 62
     3
 10
540.9530094367863
 20
220.0529842772202
 30
0.0
 40
7.0
  1
14.2
 50
90.0
  0
POINT
  5
10F66
  8
DEFPOINTS
 62
     0
 10
518.1357387293504
 20
189.4529842772201
 30
-0.0000000000001137
  0
POINT
  5
10F67
  8
DEFPOINTS
 62
     0
 10
509.9741974793499
 20
203.6529842772204
 30
-0.0000000000001137
  0
POINT
  5
10F68
  8
DEFPOINTS
 62
     0
 10
543.3530094367864
 20
203.6529842772204
 30
0.0
  0
ENDBLK
  8
0
  0
BLOCK
  8
0
  2
*X34
 70
     1
 10
0.0
 20
0.0
 30
0.0
  0
TEXT
  5
11E78
  8
DIM
  6
CONTINUOUS
 10
7.0
 20
101.7196466693372
 30
0.0
 40
9.999999999999996
  1
納入仕\U+69D8:
  0
TEXT
  5
11E79
  8
DIM
  6
CONTINUOUS
 10
7.0
 20
88.05298000267052
 30
0.0
 40
6.999999999999997
  1
1.入力電源:
  0
TEXT
  5
11E7A
  8
DIM
  6
CONTINUOUS
 10
39.66666666666666
 20
88.05298000267052
 30
0.0
 40
6.999999999999997
  1
AC100-240V(50/60Hz)
  0
TEXT
  5
11E7B
  8
DIM
  6
CONTINUOUS
 10
7.0
 20
75.38631333600387
 30
0.0
 40
6.999999999999997
  1
2.消費電力:34W
  0
TEXT
  5
11E7C
  8
DIM
  6
CONTINUOUS
 10
7.0
 20
62.7196466693372
 30
0.0
 40
6.999999999999997
  1
3.防水規格:IP65
  0
TEXT
  5
11E7D
  8
DIM
  6
CONTINUOUS
 10
7.0
 20
50.05298000267054
 30
0.0
 40
6.999999999999997
  1
4.\U+30AB\U+30D0-色:透明
  0
TEXT
  5
11E7E
  8
DIM
  6
CONTINUOUS
 10
7.0
 20
37.38631333600387
 30
0.0
 40
6.999999999999997
  1
5.電源部:定電流回路
  0
TEXT
  5
11E7F
  8
DIM
  6
CONTINUOUS
 10
7.0
 20
24.71964666933721
 30
0.0
 40
6.999999999999997
  1
6.\U+30B1\U+2015\U+30D6\U+30EB:VCTF0.75mmx2C 3M付\U+5C5E
  0
ENDBLK
  8
0
  0
ENDSEC
  0
SECTION
  2
ENTITIES
  0
POLYLINE
  5
BAD8
  8
FRAME
 66
     1
 10
0.0
 20
0.0
 30
0.0
 70
     1
  0
VERTEX
  5
11E73
  8
FRAME
 10
560.0
 20
-0.0000000000001516
 30
0.0
  0
VERTEX
  5
11E74
  8
FRAME
 10
560.0
 20
379.9999999999998
 30
0.0
  0
VERTEX
  5
11E75
  8
FRAME
 10
0.0
 20
379.9999999999999
 30
0.0
  0
VERTEX
  5
11E76
  8
FRAME
 10
0.0
 20
0.0
 30
0.0
  0
SEQEND
  5
12005
  8
FRAME
  0
TEXT
  5
10B19
  8
0
  6
CONTINUOUS
 10
352.2695172257731
 20
44.03888617397969
 30
0.0
 40
9.999999999999996
  1
NOT/S
 41
0.5
  0
TEXT
  5
10B1A
  8
0
  6
CONTINUOUS
 10
445.7097417709156
 20
4.585389169529645
 30
0.0
 40
9.999999999999996
  1
ND808035
 41
0.5
  0
TEXT
  5
10B1B
  8
0
  6
CONTINUOUS
 10
213.5999999999995
 20
3.126169768064582
 30
0.0
 40
13.99999999999999
  1
日機株式\U+4F1A社
 41
1.5
  0
LINE
  5
10B1C
  8
0
 39
7.676767676767676
 10
277.7118394269883
 20
52.36735309597177
 30
0.0
 11
287.9445940328951
 21
54.9255417474484
 31
0.0
  0
TEXT
  5
10B1D
  8
0
  6
CONTINUOUS
 10
184.3056413199834
 20
24.8711573060797
 30
0.0
 40
9.999999999999996
  1
製 \U+56F3
 41
0.5
  0
TEXT
  5
10B1E
  8
0
  6
CONTINUOUS
 10
184.0249247335496
 20
43.98278851902202
 30
0.0
 40
9.999999999999996
  1
日 付
 41
0.5
  0
TEXT
  5
10B1F
  8
0
  6
CONTINUOUS
 10
253.8112452081014
 20
25.46771668722367
 30
0.0
 40
9.999999999999996
  1
\U+691C \U+56F3
 41
0.5
  0
CIRCLE
  5
10B20
  8
0
 10
261.0836131923907
 20
49.8091644444949
 30
0.0
 40
2.558188651476676
  0
LINE
  5
10B21
  8
0
 10
254.6896357168703
 20
49.8091644444949
 30
0.0
 11
267.8594964995232
 21
49.80916444449512
 31
0.0
  0
LINE
  5
10B22
  8
0
 10
261.0836131923907
 20
43.43087532230263
 30
0.0
 11
261.0836131923907
 21
55.78225480424337
 31
0.0
  0
CIRCLE
  5
10B23
  8
0
 10
261.0836131923907
 20
49.8091644444949
 30
0.0
 40
5.116377302953352
  0
LINE
  5
10B24
  8
0
 10
287.9445940328951
 20
44.69278714154186
 30
0.0
 11
287.9445940328951
 21
54.9255417474484
 31
0.0
  0
LINE
  5
10B25
  8
0
 10
277.7118394269883
 20
47.25097579301849
 30
0.0
 11
277.7118394269883
 21
52.36735309597177
 31
0.0
  0
LINE
  5
10B26
  8
0
 10
276.2394308855373
 20
49.80916444449512
 30
0.0
 11
288.8632427796229
 21
49.80916444449512
 31
0.0
  0
LINE
  5
10B27
  8
0
 10
277.7118394269883
 20
47.25097579301849
 30
0.0
 11
287.9445940328951
 21
44.69278714154186
 31
0.0
  0
TEXT
  5
10B28
  8
0
  6
CONTINUOUS
 10
395.9635735209649
 20
46.39574044586156
 30
0.0
 40
9.999999999999996
  1
品  名
 41
0.5
  0
TEXT
  5
10B29
  8
0
  6
CONTINUOUS
 10
323.2834129410148
 20
25.46771668722367
 30
0.0
 40
9.999999999999996
  1
承 認
 41
0.5
  0
TEXT
  5
10B2A
  8
0
  6
CONTINUOUS
 10
323.2464801446122
 20
44.26331926001282
 30
0.0
 40
9.999999999999996
  1
尺 度
 41
0.5
  0
TEXT
  5
10B2B
  8
0
  6
CONTINUOUS
 10
396.0061897928636
 20
4.677238981467987
 30
0.0
 40
9.999999999999996
  1
\U+56F3  面  番  \U+53F7
 41
0.5
  0
TEXT
  5
10B2C
  8
0
  6
CONTINUOUS
 10
511.5124762495689
 20
5.226887999257142
 30
0.0
 40
9.999999999999996
  1
\U+5909更
 41
0.5
  0
TEXT
  5
10B2D
  8
0
  6
CONTINUOUS
 10
486.8221785581236
 20
45.97123340051034
 30
0.0
 40
9.999999999999996
  1
型  番
 41
0.5
  0
LINE
  5
10B2F
  8
FRAME
 10
180.0
 20
19.99999999999967
 30
0.0
 11
560.0
 21
19.99999999999967
 31
0.0
  0
LINE
  5
10B30
  8
FRAME
 10
180.0
 20
39.99999999999967
 30
0.0
 11
390.0
 21
39.99999999999967
 31
0.0
  0
LINE
  5
10B31
  8
FRAME
 10
180.0
 20
59.99999999999982
 30
0.0
 11
560.0
 21
59.99999999999982
 31
0.0
  0
LINE
  5
10B32
  8
FRAME
 10
500.0
 20
-0.0000000000003221
 30
0.0
 11
500.0
 21
19.99999999999967
 31
0.0
  0
LINE
  5
10B33
  8
FRAME
 10
480.0
 20
19.99999999999967
 30
0.0
 11
480.0
 21
59.99999999999982
 31
0.0
  0
LINE
  5
10B34
  8
FRAME
 10
390.0
 20
59.99999999999982
 30
0.0
 11
390.0
 21
-0.0000000000003221
 31
0.0
  0
LINE
  5
10B35
  8
FRAME
 10
200.0
 20
59.99999999999982
 30
0.0
 11
200.0
 21
19.99999999999967
 31
0.0
  0
LINE
  5
10B36
  8
FRAME
 10
250.0
 20
59.99999999999982
 30
0.0
 11
250.0
 21
19.99999999999967
 31
0.0
  0
LINE
  5
10B37
  8
FRAME
 10
270.0
 20
39.99999999999967
 30
0.0
 11
270.0
 21
19.99999999999967
 31
0.0
  0
LINE
  5
10B38
  8
FRAME
 10
340.0
 20
59.99999999999974
 30
0.0
 11
340.0
 21
19.99999999999967
 31
0.0
  0
LINE
  5
10B39
  8
FRAME
 10
320.0
 20
59.99999999999982
 30
0.0
 11
320.0
 21
19.99999999999998
 31
0.0
  0
LINE
  5
10B3A
  8
FRAME
 10
180.0
 20
59.99999999999982
 30
0.0
 11
180.0
 21
-0.0000000000001705
 31
0.0
  0
TEXT
  5
10B3B
  8
0
  6
CONTINUOUS
 10
395.8069318742409
 20
26.3957404458615
 30
0.0
 40
9.999999999999996
  1
LED LIGHT
 41
0.5
  0
TEXT
  5
10B3C
  8
0
  6
CONTINUOUS
 10
487.7879175684375
 20
26.3957404458615
 30
0.0
 40
9.999999999999996
  1
NLT2-50-AC
 41
0.5
  0
INSERT
  5
10B3D
  8
DIM
  2
*X34
 10
0.0
 20
0.0
 30
0.0
  0
LINE
  5
10B3E
  8
CONTOUR
 10
99.0116381527314
 20
281.7325021120602
 30
0.0
 11
66.84875973615726
 21
281.7325021120602
 31
0.0
  0
LINE
  5
10B3F
  8
CONTOUR
 10
99.0116381527314
 20
284.4059989569218
 30
0.0
 11
69.74949170554646
 21
284.4059989569218
 31
0.0
  0
LINE
  5
10B40
  8
CONTOUR
 10
99.0116381527314
 20
319.4590052672
 30
0.0
 11
69.74949170554737
 21
319.4590052672
 31
0.0
  0
LINE
  5
10B41
  8
CONTOUR
 10
99.0116381527314
 20
322.1325021120609
 30
0.0
 11
66.84875973615635
 21
322.1325021120609
 31
0.0
  0
LINE
  5
10B42
  8
CONTOUR
 10
60.01163815273139
 20
283.7325021120599
 30
0.0
 11
60.01163815273139
 21
320.1325021120609
 31
0.0
  0
LINE
  5
10B43
  8
CONTOUR
 10
60.01163815273139
 20
281.7325021120599
 30
0.0
 11
60.01163815273139
 21
283.7325021120599
 31
0.0
  0
LINE
  5
10B44
  8
CONTOUR
 10
60.01163815273139
 20
283.73250211206
 30
0.0
 11
66.84875973615726
 21
283.7325021120603
 31
0.0
  0
POLYLINE
  5
10B45
  8
CONTOUR
 66
     1
 10
0.0
 20
0.0
 30
0.0
  0
VERTEX
  5
11E80
  8
CONTOUR
 10
66.84875973615726
 20
283.73250211206
 30
0.0
  0
VERTEX
  5
11E81
  8
CONTOUR
 10
67.47092092442993
 20
283.8686578482756
 30
0.0
  0
VERTEX
  5
11E82
  8
CONTOUR
 10
68.0685282533884
 20
284.2717516121383
 30
0.0
  0
VERTEX
  5
11E83
  8
CONTOUR
 10
68.61799689235376
 20
284.9258751346098
 30
0.0
  0
VERTEX
  5
11E84
  8
CONTOUR
 10
69.09764182478528
 20
285.8052131490878
 30
0.0
  0
SEQEND
  5
12006
  8
CONTOUR
  0
POLYLINE
  5
10B46
  8
CONTOUR
 66
     1
 10
0.0
 20
0.0
 30
0.0
  0
VERTEX
  5
11E85
  8
CONTOUR
 10
69.09764182478587
 20
285.8052131490863
 30
0.0
  0
VERTEX
  5
11E86
  8
CONTOUR
 10
70.37322707068607
 20
289.2776078671159
 30
0.0
  0
VERTEX
  5
11E87
  8
CONTOUR
 10
71.32004951825228
 20
293.2233854147266
 30
0.0
  0
VERTEX
  5
11E88
  8
CONTOUR
 10
71.90269129036403
 20
297.494945716862
 30
0.0
  0
VERTEX
  5
11E89
  8
CONTOUR
 10
72.09935745097715
 20
301.9325021120604
 30
0.0
  0
VERTEX
  5
11E8A
  8
CONTOUR
 10
71.902691290364
 20
306.3700585072588
 30
0.0
  0
VERTEX
  5
11E8B
  8
CONTOUR
 10
71.32004951825222
 20
310.6416188093942
 30
0.0
  0
VERTEX
  5
11E8C
  8
CONTOUR
 10
70.37322707068599
 20
314.587396357005
 30
0.0
  0
VERTEX
  5
11E8D
  8
CONTOUR
 10
69.09764182478575
 20
318.0597910750345
 30
0.0
  0
SEQEND
  5
12007
  8
CONTOUR
  0
POLYLINE
  5
10B47
  8
CONTOUR
 66
     1
 10
0.0
 20
0.0
 30
0.0
  0
VERTEX
  5
11E8E
  8
CONTOUR
 10
69.09764182478457
 20
318.0597910750329
 30
0.0
  0
VERTEX
  5
11E8F
  8
CONTOUR
 10
68.61799689235303
 20
318.9391290895111
 30
0.0
  0
VERTEX
  5
11E90
  8
CONTOUR
 10
68.06852825338761
 20
319.5932526119827
 30
0.0
  0
VERTEX
  5
11E91
  8
CONTOUR
 10
67.4709209244291
 20
319.9963463758456
 30
0.0
  0
VERTEX
  5
11E92
  8
CONTOUR
 10
66.84875973615635
 20
320.1325021120611
 30
0.0
  0
SEQEND
  5
12008
  8
CONTOUR
  0
LINE
  5
10B48
  8
CONTOUR
 10
66.84875973615635
 20
320.1325021120612
 30
0.0
 11
60.01163815273139
 21
320.1325021120609
 31
0.0
  0
LINE
  5
10B49
  8
CONTOUR
 10
60.01163815273139
 20
320.1325021120609
 30
0.0
 11
60.01163815273139
 21
322.1325021120609
 31
0.0
  0
LINE
  5
10B4A
  8
CONTOUR
 10
60.01163815273139
 20
322.1325021120609
 30
0.0
 11
66.84875973615681
 21
322.1325021120612
 31
0.0
  0
POLYLINE
  5
10B4B
  8
CONTOUR
 66
     1
 10
0.0
 20
0.0
 30
0.0
  0
VERTEX
  5
11E93
  8
CONTOUR
 10
69.74949170554636
 20
319.4590052671987
 30
0.0
  0
VERTEX
  5
11E94
  8
CONTOUR
 10
69.130819256468
 20
320.5932238655835
 30
0.0
  0
VERTEX
  5
11E95
  8
CONTOUR
 10
68.42208434533869
 20
321.4369484090614
 30
0.0
  0
VERTEX
  5
11E96
  8
CONTOUR
 10
67.65125750074002
 20
321.9568809450584
 30
0.0
  0
VERTEX
  5
11E97
  8
CONTOUR
 10
66.84875973615635
 20
322.1325021120611
 30
0.0
  0
SEQEND
  5
12009
  8
CONTOUR
  0
POLYLINE
  5
10B4C
  8
CONTOUR
 66
     1
 10
0.0
 20
0.0
 30
0.0
  0
VERTEX
  5
11E98
  8
CONTOUR
 10
69.74949170554758
 20
284.4059989569204
 30
0.0
  0
VERTEX
  5
11E99
  8
CONTOUR
 10
71.13574756592483
 20
288.1796609233649
 30
0.0
  0
VERTEX
  5
11E9A
  8
CONTOUR
 10
72.1647169514629
 20
292.467776724877
 30
0.0
  0
VERTEX
  5
11E9B
  8
CONTOUR
 10
72.79790910673945
 20
297.109940406859
 30
0.0
  0
VERTEX
  5
11E9C
  8
CONTOUR
 10
73.01163815273154
 20
301.9325021120604
 30
0.0
  0
VERTEX
  5
11E9D
  8
CONTOUR
 10
72.79790910673944
 20
306.7550638172617
 30
0.0
  0
VERTEX
  5
11E9E
  8
CONTOUR
 10
72.16471695146288
 20
311.3972274992437
 30
0.0
  0
VERTEX
  5
11E9F
  8
CONTOUR
 10
71.13574756592477
 20
315.6853433007558
 30
0.0
  0
VERTEX
  5
11EA0
  8
CONTOUR
 10
69.74949170554753
 20
319.4590052672003
 30
0.0
  0
SEQEND
  5
1200A
  8
CONTOUR
  0
POLYLINE
  5
10B4D
  8
CONTOUR
 66
     1
 10
0.0
 20
0.0
 30
0.0
  0
VERTEX
  5
11EA1
  8
CONTOUR
 10
66.84875973615726
 20
281.73250211206
 30
0.0
  0
VERTEX
  5
11EA2
  8
CONTOUR
 10
67.65125750074084
 20
281.9081232790627
 30
0.0
  0
VERTEX
  5
11EA3
  8
CONTOUR
 10
68.42208434533943
 20
282.4280558150596
 30
0.0
  0
VERTEX
  5
11EA4
  8
CONTOUR
 10
69.13081925646868
 20
283.2717803585373
 30
0.0
  0
VERTEX
  5
11EA5
  8
CONTOUR
 10
69.74949170554702
 20
284.4059989569218
 30
0.0
  0
SEQEND
  5
1200B
  8
CONTOUR
  0
LINE
  5
10B4E
  8
CONTOUR
 10
66.84875973615726
 20
281.7325021120603
 30
0.0
 11
60.01163815273139
 21
281.7325021120599
 31
0.0
  0
ARC
  5
10B4F
  8
CONTOUR
 10
64.2616381527314
 20
315.4325021120605
 30
0.0
 40
2.25
 50
90.0
 51
270.0
  0
LINE
  5
10B50
  8
CONTOUR
 10
65.7616381527314
 20
313.1825021120603
 30
0.0
 11
64.2616381527314
 21
313.1825021120603
 31
0.0
  0
ARC
  5
10B51
  8
CONTOUR
 10
65.7616381527314
 20
315.4325021120605
 30
0.0
 40
2.25
 50
270.0
 51
90.0
  0
LINE
  5
10B52
  8
CONTOUR
 10
64.2616381527314
 20
317.6825021120603
 30
0.0
 11
65.7616381527314
 21
317.6825021120603
 31
0.0
  0
ARC
  5
10B53
  8
CONTOUR
 10
64.2616381527314
 20
288.4325021120604
 30
0.0
 40
2.25
 50
90.0
 51
270.0
  0
LINE
  5
10B54
  8
CONTOUR
 10
65.7616381527314
 20
286.1825021120602
 30
0.0
 11
64.2616381527314
 21
286.1825021120602
 31
0.0
  0
ARC
  5
10B55
  8
CONTOUR
 10
65.7616381527314
 20
288.4325021120604
 30
0.0
 40
2.25
 50
270.0
 51
90.0
  0
LINE
  5
10B56
  8
CONTOUR
 10
64.2616381527314
 20
290.6825021120602
 30
0.0
 11
65.7616381527314
 21
290.6825021120602
 31
0.0
  0
LINE
  5
10B57
  8
CONTOUR
 10
99.0116381527314
 20
281.73250211206
 30
0.0
 11
99.0116381527314
 21
322.1325021120609
 31
0.0
  0
LINE
  5
10B58
  8
CONTOUR
 10
321.0116381527314
 20
320.2325021120622
 30
0.0
 11
215.9151083742209
 21
320.2325021120621
 31
0.0
  0
LINE
  5
10B59
  8
CONTOUR
 10
321.0116381527314
 20
283.6325021120614
 30
0.0
 11
206.1081679312417
 21
283.6325021120614
 31
0.0
  0
LINE
  5
10B5A
  8
CONTOUR
 10
321.0116381527314
 20
319.4590052672
 30
0.0
 11
350.2737845999163
 21
319.4590052672
 31
0.0
  0
LINE
  5
10B5B
  8
CONTOUR
 10
321.0116381527314
 20
284.4059989569217
 30
0.0
 11
350.2737845999154
 21
284.4059989569217
 31
0.0
  0
LINE
  5
10B5C
  8
CONTOUR
 10
321.0116381527314
 20
281.7325021120608
 30
0.0
 11
353.1745165693064
 21
281.7325021120608
 31
0.0
  0
LINE
  5
10B5D
  8
CONTOUR
 10
360.0116381527314
 20
320.1325021120621
 30
0.0
 11
360.0116381527314
 21
311.9709608620614
 31
0.0
  0
LINE
  5
10B5E
  8
CONTOUR
 10
360.0116381527314
 20
291.8940433620613
 30
0.0
 11
360.0116381527314
 21
283.7325021120611
 31
0.0
  0
LINE
  5
10B5F
  8
CONTOUR
 10
321.0116381527314
 20
322.1325021120616
 30
0.0
 11
353.1745165693064
 21
322.1325021120616
 31
0.0
  0
LINE
  5
10B60
  8
CONTOUR
 10
360.0116381527314
 20
322.1325021120621
 30
0.0
 11
360.0116381527314
 21
320.1325021120621
 31
0.0
  0
LINE
  5
10B61
  8
CONTOUR
 10
360.0116381527314
 20
320.132502112062
 30
0.0
 11
353.1745165693064
 21
320.1325021120617
 31
0.0
  0
POLYLINE
  5
10B62
  8
CONTOUR
 66
     1
 10
0.0
 20
0.0
 30
0.0
  0
VERTEX
  5
11EA6
  8
CONTOUR
 10
353.1745165693064
 20
320.1325021120617
 30
0.0
  0
VERTEX
  5
11EA7
  8
CONTOUR
 10
352.5523553810338
 20
319.9963463758462
 30
0.0
  0
VERTEX
  5
11EA8
  8
CONTOUR
 10
351.9547480520753
 20
319.5932526119835
 30
0.0
  0
VERTEX
  5
11EA9
  8
CONTOUR
 10
351.40527941311
 20
318.939129089512
 30
0.0
  0
VERTEX
  5
11EAA
  8
CONTOUR
 10
350.9256344806785
 20
318.0597910750341
 30
0.0
  0
SEQEND
  5
1200C
  8
CONTOUR
  0
POLYLINE
  5
10B63
  8
CONTOUR
 66
     1
 10
0.0
 20
0.0
 30
0.0
  0
VERTEX
  5
11EAB
  8
CONTOUR
 10
350.925634480677
 20
318.0597910750357
 30
0.0
  0
VERTEX
  5
11EAC
  8
CONTOUR
 10
349.6500492347768
 20
314.5873963570061
 30
0.0
  0
VERTEX
  5
11EAD
  8
CONTOUR
 10
348.7032267872106
 20
310.6416188093954
 30
0.0
  0
VERTEX
  5
11EAE
  8
CONTOUR
 10
348.1205850150988
 20
306.37005850726
 30
0.0
  0
VERTEX
  5
11EAF
  8
CONTOUR
 10
347.9239188544856
 20
301.9325021120616
 30
0.0
  0
VERTEX
  5
11EB0
  8
CONTOUR
 10
348.1205850150988
 20
297.4949457168632
 30
0.0
  0
VERTEX
  5
11EB1
  8
CONTOUR
 10
348.7032267872106
 20
293.2233854147278
 30
0.0
  0
VERTEX
  5
11EB2
  8
CONTOUR
 10
349.6500492347768
 20
289.277607867117
 30
0.0
  0
VERTEX
  5
11EB3
  8
CONTOUR
 10
350.925634480677
 20
285.8052131490875
 30
0.0
  0
SEQEND
  5
1200D
  8
CONTOUR
  0
POLYLINE
  5
10B64
  8
CONTOUR
 66
     1
 10
0.0
 20
0.0
 30
0.0
  0
VERTEX
  5
11EB4
  8
CONTOUR
 10
350.9256344806782
 20
285.805213149089
 30
0.0
  0
VERTEX
  5
11EB5
  8
CONTOUR
 10
351.4052794131097
 20
284.9258751346107
 30
0.0
  0
VERTEX
  5
11EB6
  8
CONTOUR
 10
351.9547480520752
 20
284.2717516121391
 30
0.0
  0
VERTEX
  5
11EB7
  8
CONTOUR
 10
352.5523553810337
 20
283.8686578482763
 30
0.0
  0
VERTEX
  5
11EB8
  8
CONTOUR
 10
353.1745165693064
 20
283.7325021120607
 30
0.0
  0
SEQEND
  5
1200E
  8
CONTOUR
  0
LINE
  5
10B65
  8
CONTOUR
 10
353.1745165693064
 20
283.7325021120608
 30
0.0
 11
360.0116381527314
 21
283.7325021120611
 31
0.0
  0
LINE
  5
10B66
  8
CONTOUR
 10
360.0116381527314
 20
283.7325021120611
 30
0.0
 11
360.0116381527314
 21
281.7325021120611
 31
0.0
  0
LINE
  5
10B67
  8
CONTOUR
 10
360.0116381527314
 20
281.7325021120611
 30
0.0
 11
353.1745165693064
 21
281.7325021120608
 31
0.0
  0
POLYLINE
  5
10B68
  8
CONTOUR
 66
     1
 10
0.0
 20
0.0
 30
0.0
  0
VERTEX
  5
11EB9
  8
CONTOUR
 10
350.2737845999164
 20
284.4059989569232
 30
0.0
  0
VERTEX
  5
11EBA
  8
CONTOUR
 10
350.8924570489947
 20
283.2717803585383
 30
0.0
  0
VERTEX
  5
11EBB
  8
CONTOUR
 10
351.6011919601241
 20
282.4280558150604
 30
0.0
  0
VERTEX
  5
11EBC
  8
CONTOUR
 10
352.3720188047228
 20
281.9081232790634
 30
0.0
  0
VERTEX
  5
11EBD
  8
CONTOUR
 10
353.1745165693064
 20
281.7325021120607
 30
0.0
  0
SEQEND
  5
1200F
  8
CONTOUR
  0
POLYLINE
  5
10B69
  8
CONTOUR
 66
     1
 10
0.0
 20
0.0
 30
0.0
  0
VERTEX
  5
11EBE
  8
CONTOUR
 10
350.2737845999152
 20
319.4590052672016
 30
0.0
  0
VERTEX
  5
11EBF
  8
CONTOUR
 10
348.887528739538
 20
315.685343300757
 30
0.0
  0
VERTEX
  5
11EC0
  8
CONTOUR
 10
347.8585593539999
 20
311.397227499245
 30
0.0
  0
VERTEX
  5
11EC1
  8
CONTOUR
 10
347.2253671987233
 20
306.755063817263
 30
0.0
  0
VERTEX
  5
11EC2
  8
CONTOUR
 10
347.0116381527312
 20
301.9325021120616
 30
0.0
  0
VERTEX
  5
11EC3
  8
CONTOUR
 10
347.2253671987233
 20
297.1099404068603
 30
0.0
  0
VERTEX
  5
11EC4
  8
CONTOUR
 10
347.8585593539999
 20
292.4677767248783
 30
0.0
  0
VERTEX
  5
11EC5
  8
CONTOUR
 10
348.887528739538
 20
288.1796609233662
 30
0.0
  0
VERTEX
  5
11EC6
  8
CONTOUR
 10
350.2737845999152
 20
284.4059989569217
 30
0.0
  0
SEQEND
  5
12010
  8
CONTOUR
  0
POLYLINE
  5
10B6A
  8
CONTOUR
 66
     1
 10
0.0
 20
0.0
 30
0.0
  0
VERTEX
  5
11EC7
  8
CONTOUR
 10
353.1745165693064
 20
322.1325021120617
 30
0.0
  0
VERTEX
  5
11EC8
  8
CONTOUR
 10
352.3720188047229
 20
321.9568809450591
 30
0.0
  0
VERTEX
  5
11EC9
  8
CONTOUR
 10
351.6011919601243
 20
321.4369484090623
 30
0.0
  0
VERTEX
  5
11ECA
  8
CONTOUR
 10
350.892457048995
 20
320.5932238655845
 30
0.0
  0
VERTEX
  5
11ECB
  8
CONTOUR
 10
350.2737845999167
 20
319.4590052672
 30
0.0
  0
SEQEND
  5
12011
  8
CONTOUR
  0
LINE
  5
10B6B
  8
CONTOUR
 10
353.174516569306
 20
322.1325021120617
 30
0.0
 11
360.0116381527314
 21
322.1325021120621
 31
0.0
  0
ARC
  5
10B6C
  8
CONTOUR
 10
355.7616381527314
 20
315.4325021120616
 30
0.0
 40
2.25
 50
270.0
 51
90.0
  0
LINE
  5
10B6D
  8
CONTOUR
 10
354.2616381527314
 20
317.6825021120616
 30
0.0
 11
355.7616381527314
 21
317.6825021120616
 31
0.0
  0
ARC
  5
10B6E
  8
CONTOUR
 10
354.2616381527314
 20
315.4325021120616
 30
0.0
 40
2.25
 50
90.0
 51
270.0
  0
LINE
  5
10B6F
  8
CONTOUR
 10
355.7616381527314
 20
313.1825021120616
 30
0.0
 11
354.2616381527314
 21
313.1825021120616
 31
0.0
  0
ARC
  5
10B70
  8
CONTOUR
 10
355.7616381527314
 20
288.4325021120615
 30
0.0
 40
2.25
 50
270.0
 51
90.0
  0
LINE
  5
10B71
  8
CONTOUR
 10
354.2616381527314
 20
290.6825021120615
 30
0.0
 11
355.7616381527314
 21
290.6825021120615
 31
0.0
  0
ARC
  5
10B72
  8
CONTOUR
 10
354.2616381527314
 20
288.4325021120615
 30
0.0
 40
2.25
 50
90.0
 51
270.0
  0
LINE
  5
10B73
  8
CONTOUR
 10
355.7616381527314
 20
286.1825021120615
 30
0.0
 11
354.2616381527314
 21
286.1825021120615
 31
0.0
  0
LINE
  5
10B74
  8
CONTOUR
 10
321.0116381527314
 20
322.1325021120616
 30
0.0
 11
321.0116381527314
 21
281.7325021120609
 31
0.0
  0
LINE
  5
10B75
  8
CONTOUR
 10
348.5116381527314
 20
304.3778245441899
 30
0.0
 11
348.5116381527314
 21
309.1071796799334
 31
0.0
  0
LINE
  5
10B76
  8
CONTOUR
 10
348.5116381527314
 20
294.7578245441898
 30
0.0
 11
348.5116381527314
 21
299.4871796799322
 31
0.0
  0
LINE
  5
10B77
  8
CONTOUR
 10
353.5116381527314
 20
292.3125021120615
 30
0.0
 11
353.5116381527314
 21
293.8125021120616
 31
0.0
  0
LINE
  5
10B78
  8
CONTOUR
 10
353.5116381527314
 20
292.3125021120614
 30
0.0
 11
348.883297638502
 21
292.3125021120614
 31
0.0
  0
LINE
  5
10B79
  8
CONTOUR
 10
353.5116381527314
 20
293.8125021120614
 30
0.0
 11
353.5116381527314
 21
300.4325021120612
 31
0.0
  0
LINE
  5
10B7A
  8
CONTOUR
 10
353.5116381527314
 20
293.8125021120614
 30
0.0
 11
348.5978553720606
 21
293.8125021120614
 31
0.0
  0
LINE
  5
10B7B
  8
CONTOUR
 10
348.5116381527314
 20
300.4325021120612
 30
0.0
 11
348.5116381527314
 21
299.4871796799321
 31
0.0
  0
LINE
  5
10B7C
  8
CONTOUR
 10
348.5116381527314
 20
294.7578245441898
 30
0.0
 11
348.5116381527314
 21
294.3336272342728
 31
0.0
  0
LINE
  5
10B7D
  8
CONTOUR
 10
353.5116381527314
 20
300.4325021120613
 30
0.0
 11
353.5116381527314
 21
303.4325021120614
 31
0.0
  0
LINE
  5
10B7E
  8
CONTOUR
 10
353.5116381527314
 20
300.4325021120613
 30
0.0
 11
348.5116381527314
 21
300.4325021120613
 31
0.0
  0
LINE
  5
10B7F
  8
CONTOUR
 10
348.5116381527314
 20
303.4325021120614
 30
0.0
 11
348.5116381527314
 21
300.4325021120613
 31
0.0
  0
LINE
  5
10B80
  8
CONTOUR
 10
353.5116381527314
 20
303.4325021120613
 30
0.0
 11
353.5116381527314
 21
310.0525021120613
 31
0.0
  0
LINE
  5
10B81
  8
CONTOUR
 10
353.5116381527314
 20
303.4325021120613
 30
0.0
 11
348.5116381527314
 21
303.4325021120613
 31
0.0
  0
LINE
  5
10B82
  8
CONTOUR
 10
348.5116381527314
 20
309.531376989851
 30
0.0
 11
348.5116381527314
 21
309.1071796799335
 31
0.0
  0
LINE
  5
10B83
  8
CONTOUR
 10
348.5116381527314
 20
304.3778245441897
 30
0.0
 11
348.5116381527314
 21
303.4325021120613
 31
0.0
  0
LINE
  5
10B84
  8
CONTOUR
 10
353.5116381527314
 20
310.0525021120613
 30
0.0
 11
353.5116381527314
 21
311.5525021120614
 31
0.0
  0
LINE
  5
10B85
  8
CONTOUR
 10
353.5116381527314
 20
310.0525021120615
 30
0.0
 11
348.5978553720606
 21
310.0525021120615
 31
0.0
  0
LINE
  5
10B86
  8
CONTOUR
 10
353.5116381527314
 20
311.5525021120615
 30
0.0
 11
348.883297638502
 21
311.5525021120615
 31
0.0
  0
LINE
  5
10B87
  8
CONTOUR
 10
355.8518646993825
 20
311.9709608620614
 30
0.0
 11
355.8518646993825
 21
307.4824963000544
 31
0.0
  0
LINE
  5
10B88
  8
CONTOUR
 10
355.8518646993825
 20
311.9709608620614
 30
0.0
 11
365.5522879648261
 21
311.9709608620614
 31
0.0
  0
LINE
  5
10B89
  8
CONTOUR
 10
355.8518646993825
 20
307.4824963000543
 30
0.0
 11
355.8518646993825
 21
306.4209666740683
 31
0.0
  0
LINE
  5
10B8A
  8
CONTOUR
 10
355.8518646993825
 20
307.4824963000543
 30
0.0
 11
365.5522879648261
 21
307.4824963000543
 31
0.0
  0
LINE
  5
10B8B
  8
CONTOUR
 10
355.8518646993825
 20
306.4209666740684
 30
0.0
 11
355.8518646993825
 21
297.4440375500543
 31
0.0
  0
LINE
  5
10B8C
  8
CONTOUR
 10
355.8518646993825
 20
306.4209666740684
 30
0.0
 11
365.5522879648261
 21
306.4209666740684
 31
0.0
  0
LINE
  5
10B8D
  8
CONTOUR
 10
355.8518646993825
 20
297.4440375500542
 30
0.0
 11
355.8518646993825
 21
296.3825079240685
 31
0.0
  0
LINE
  5
10B8E
  8
CONTOUR
 10
355.8518646993825
 20
297.4440375500542
 30
0.0
 11
365.5522879648261
 21
297.4440375500542
 31
0.0
  0
LINE
  5
10B8F
  8
CONTOUR
 10
355.8518646993825
 20
296.3825079240685
 30
0.0
 11
355.8518646993825
 21
291.8940433620614
 31
0.0
  0
LINE
  5
10B90
  8
CONTOUR
 10
355.8518646993825
 20
296.3825079240685
 30
0.0
 11
365.5522879648261
 21
296.3825079240685
 31
0.0
  0
LINE
  5
10B91
  8
CONTOUR
 10
355.8518646993825
 20
291.8940433620613
 30
0.0
 11
365.5522879648261
 21
291.8940433620613
 31
0.0
  0
LINE
  5
10B92
  8
CONTOUR
 10
372.4672446993827
 20
307.1248083620616
 30
0.0
 11
372.4672446993827
 21
296.740195862061
 31
0.0
  0
POLYLINE
  5
10B93
  8
CONTOUR
 66
     1
 10
0.0
 20
0.0
 30
0.0
  0
VERTEX
  5
11ECC
  8
CONTOUR
 10
365.5522879648261
 20
291.9150629297013
 30
0.0
  0
VERTEX
  5
11ECD
  8
CONTOUR
 10
365.8047953334911
 20
292.218917380001
 30
0.0
  0
VERTEX
  5
11ECE
  8
CONTOUR
 10
366.0182474397421
 20
292.5119160497016
 30
0.0
  0
VERTEX
  5
11ECF
  8
CONTOUR
 10
366.1950859682278
 20
292.7959585331095
 30
0.0
  0
VERTEX
  5
11ED0
  8
CONTOUR
 10
366.3372717016991
 20
293.0727727758307
 30
0.0
  0
VERTEX
  5
11ED1
  8
CONTOUR
 10
366.446340918312
 20
293.3439528642851
 30
0.0
  0
VERTEX
  5
11ED2
  8
CONTOUR
 10
366.5234480041731
 20
293.6109914419479
 30
0.0
  0
VERTEX
  5
11ED3
  8
CONTOUR
 10
366.5693965485425
 20
293.8753082024169
 30
0.0
  0
VERTEX
  5
11ED4
  8
CONTOUR
 10
366.584660515744
 20
294.1382756430649
 30
0.0
  0
VERTEX
  5
11ED5
  8
CONTOUR
 10
366.5693965485424
 20
294.4012430837129
 30
0.0
  0
VERTEX
  5
11ED6
  8
CONTOUR
 10
366.523448004173
 20
294.6655598441819
 30
0.0
  0
VERTEX
  5
11ED7
  8
CONTOUR
 10
366.446340918312
 20
294.9325984218447
 30
0.0
  0
VERTEX
  5
11ED8
  8
CONTOUR
 10
366.3372717016991
 20
295.2037785102991
 30
0.0
  0
VERTEX
  5
11ED9
  8
CONTOUR
 10
366.1950859682278
 20
295.4805927530203
 30
0.0
  0
VERTEX
  5
11EDA
  8
CONTOUR
 10
366.0182474397421
 20
295.7646352364283
 30
0.0
  0
VERTEX
  5
11EDB
  8
CONTOUR
 10
365.8047953334911
 20
296.0576339061288
 30
0.0
  0
VERTEX
  5
11EDC
  8
CONTOUR
 10
365.5522879648261
 20
296.3614883564285
 30
0.0
  0
SEQEND
  5
12012
  8
CONTOUR
  0
POLYLINE
  5
10B94
  8
CONTOUR
 66
     1
 10
0.0
 20
0.0
 30
0.0
  0
VERTEX
  5
11EDD
  8
CONTOUR
 10
365.5522879648261
 20
297.4860766853342
 30
0.0
  0
VERTEX
  5
11EDE
  8
CONTOUR
 10
365.8047953334911
 20
298.0937855859335
 30
0.0
  0
VERTEX
  5
11EDF
  8
CONTOUR
 10
366.0182474397421
 20
298.6797829253348
 30
0.0
  0
VERTEX
  5
11EE0
  8
CONTOUR
 10
366.1950859682278
 20
299.2478678921507
 30
0.0
  0
VERTEX
  5
11EE1
  8
CONTOUR
 10
366.3372717016991
 20
299.8014963775931
 30
0.0
  0
VERTEX
  5
11EE2
  8
CONTOUR
 10
366.4463409183121
 20
300.3438565545018
 30
0.0
  0
VERTEX
  5
11EE3
  8
CONTOUR
 10
366.5234480041731
 20
300.8779337098274
 30
0.0
  0
VERTEX
  5
11EE4
  8
CONTOUR
 10
366.5693965485424
 20
301.4065672307653
 30
0.0
  0
VERTEX
  5
11EE5
  8
CONTOUR
 10
366.584660515744
 20
301.9325021120613
 30
0.0
  0
VERTEX
  5
11EE6
  8
CONTOUR
 10
366.5693965485424
 20
302.4584369933575
 30
0.0
  0
VERTEX
  5
11EE7
  8
CONTOUR
 10
366.5234480041731
 20
302.9870705142955
 30
0.0
  0
VERTEX
  5
11EE8
  8
CONTOUR
 10
366.446340918312
 20
303.5211476696209
 30
0.0
  0
VERTEX
  5
11EE9
  8
CONTOUR
 10
366.3372717016991
 20
304.0635078465297
 30
0.0
  0
VERTEX
  5
11EEA
  8
CONTOUR
 10
366.1950859682278
 20
304.6171363319721
 30
0.0
  0
VERTEX
  5
11EEB
  8
CONTOUR
 10
366.0182474397421
 20
305.185221298788
 30
0.0
  0
VERTEX
  5
11EEC
  8
CONTOUR
 10
365.8047953334911
 20
305.7712186381893
 30
0.0
  0
VERTEX
  5
11EED
  8
CONTOUR
 10
365.5522879648261
 20
306.3789275387886
 30
0.0
  0
SEQEND
  5
12013
  8
CONTOUR
  0
POLYLINE
  5
10B95
  8
CONTOUR
 66
     1
 10
0.0
 20
0.0
 30
0.0
  0
VERTEX
  5
11EEE
  8
CONTOUR
 10
365.5522879648261
 20
307.5035158676945
 30
0.0
  0
VERTEX
  5
11EEF
  8
CONTOUR
 10
365.804795333491
 20
307.8073703179941
 30
0.0
  0
VERTEX
  5
11EF0
  8
CONTOUR
 10
366.0182474397419
 20
308.1003689876948
 30
0.0
  0
VERTEX
  5
11EF1
  8
CONTOUR
 10
366.1950859682275
 20
308.3844114711027
 30
0.0
  0
VERTEX
  5
11EF2
  8
CONTOUR
 10
366.3372717016988
 20
308.6612257138239
 30
0.0
  0
VERTEX
  5
11EF3
  8
CONTOUR
 10
366.4463409183117
 20
308.9324058022782
 30
0.0
  0
VERTEX
  5
11EF4
  8
CONTOUR
 10
366.5234480041726
 20
309.199444379941
 30
0.0
  0
VERTEX
  5
11EF5
  8
CONTOUR
 10
366.569396548542
 20
309.4637611404099
 30
0.0
  0
VERTEX
  5
11EF6
  8
CONTOUR
 10
366.5846605157435
 20
309.726728581058
 30
0.0
  0
VERTEX
  5
11EF7
  8
CONTOUR
 10
366.569396548542
 20
309.989696021706
 30
0.0
  0
VERTEX
  5
11EF8
  8
CONTOUR
 10
366.5234480041725
 20
310.2540127821749
 30
0.0
  0
VERTEX
  5
11EF9
  8
CONTOUR
 10
366.4463409183116
 20
310.5210513598376
 30
0.0
  0
VERTEX
  5
11EFA
  8
CONTOUR
 10
366.3372717016987
 20
310.7922314482921
 30
0.0
  0
VERTEX
  5
11EFB
  8
CONTOUR
 10
366.1950859682275
 20
311.0690456910132
 30
0.0
  0
VERTEX
  5
11EFC
  8
CONTOUR
 10
366.0182474397419
 20
311.3530881744211
 30
0.0
  0
VERTEX
  5
11EFD
  8
CONTOUR
 10
365.804795333491
 20
311.6460868441218
 30
0.0
  0
VERTEX
  5
11EFE
  8
CONTOUR
 10
365.5522879648261
 20
311.9499412944214
 30
0.0
  0
SEQEND
  5
12014
  8
CONTOUR
  0
LINE
  5
10B96
  8
CONTOUR
 10
366.928784699383
 20
310.5863458620616
 30
0.0
 11
366.928784699383
 21
293.278658362061
 31
0.0
  0
LINE
  5
10B97
  8
CONTOUR
 10
365.5522879648261
 20
296.3825079240681
 30
0.0
 11
365.5522879648261
 21
296.9132727370614
 31
0.0
  0
LINE
  5
10B98
  8
CONTOUR
 10
365.5522879648261
 20
296.3614883564287
 30
0.0
 11
365.5522879648261
 21
296.3825079240685
 31
0.0
  0
LINE
  5
10B99
  8
CONTOUR
 10
365.5522879648261
 20
291.8940433620613
 30
0.0
 11
365.5522879648261
 21
291.9150629297015
 31
0.0
  0
LINE
  5
10B9A
  8
CONTOUR
 10
365.5522879648261
 20
306.4209666740684
 30
0.0
 11
365.5522879648261
 21
306.9517314870606
 31
0.0
  0
LINE
  5
10B9B
  8
CONTOUR
 10
365.5522879648261
 20
306.3789275387886
 30
0.0
 11
365.5522879648261
 21
306.4209666740683
 31
0.0
  0
LINE
  5
10B9C
  8
CONTOUR
 10
365.5522879648261
 20
311.9499412944215
 30
0.0
 11
365.5522879648261
 21
311.9709608620617
 31
0.0
  0
LINE
  5
10B9D
  8
CONTOUR
 10
365.5522879648261
 20
297.4440375500542
 30
0.0
 11
365.5522879648261
 21
297.4860766853342
 31
0.0
  0
LINE
  5
10B9E
  8
CONTOUR
 10
365.5522879648261
 20
296.9132727370614
 30
0.0
 11
365.5522879648261
 21
297.4440375500539
 31
0.0
  0
LINE
  5
10B9F
  8
CONTOUR
 10
365.5522879648261
 20
307.4824963000547
 30
0.0
 11
365.5522879648261
 21
307.5035158676945
 31
0.0
  0
LINE
  5
10BA0
  8
CONTOUR
 10
365.5522879648261
 20
306.9517314870606
 30
0.0
 11
365.5522879648261
 21
307.4824963000544
 31
0.0
  0
LINE
  5
10BA1
  8
CONTOUR
 10
355.8518646993825
 20
309.7825021120613
 30
0.0
 11
353.5116381527314
 21
309.7825021120613
 31
0.0
  0
LINE
  5
10BA2
  8
CONTOUR
 10
355.8518646993825
 20
294.0825021120613
 30
0.0
 11
353.5116381527314
 21
294.0825021120613
 31
0.0
  0
LINE
  5
10BA3
  8
CONTOUR
 10
366.928784699383
 20
293.278658362061
 30
0.0
 11
369.0057071993824
 21
293.278658362061
 31
0.0
  0
LINE
  5
10BA4
  8
CONTOUR
 10
366.928784699383
 20
310.5863458620616
 30
0.0
 11
369.0057071993824
 21
310.5863458620616
 31
0.0
  0
ARC
  5
10BA5
  8
CONTOUR
 10
369.0057071993824
 20
307.1248083620616
 30
0.0
 40
3.461537500000024
 50
0.0
 51
90.0
  0
ARC
  5
10BA6
  8
CONTOUR
 10
369.0057071993824
 20
296.740195862061
 30
0.0
 40
3.461537500000024
 50
270.0
 51
0.0
  0
LINE
  5
10BA7
  8
CONTOUR
 10
366.928784699383
 20
310.5863458620613
 30
0.0
 11
365.5522879648261
 21
311.9709608620612
 31
0.0
  0
LINE
  5
10BA8
  8
CONTOUR
 10
366.928784699383
 20
293.2786583620613
 30
0.0
 11
365.5522879648261
 21
291.8940433620614
 31
0.0
  0
LINE
  5
10BA9
  8
CONTOUR
 10
518.1357387293501
 20
189.45298427722
 30
-0.0000000000001137
 11
477.7357387293487
 21
189.45298427722
 31
-0.0000000000001137
  0
LINE
  5
10BAA
  8
CONTOUR
 10
477.7357387293496
 20
189.45298427722
 30
-0.0000000000001137
 11
477.7357387293496
 21
191.45298427722
 31
-0.0000000000001137
  0
LINE
  5
10BAB
  8
CONTOUR
 10
516.1357387293501
 20
191.4529842772203
 30
-0.0000000000001137
 11
479.7357387293487
 21
191.4529842772203
 31
-0.0000000000001137
  0
LINE
  5
10BAC
  8
CONTOUR
 10
518.1357387293501
 20
191.45298427722
 30
-0.0000000000001137
 11
518.1357387293501
 21
189.45298427722
 31
-0.0000000000001137
  0
LINE
  5
10BAD
  8
CONTOUR
 10
518.1357387293501
 20
191.45298427722
 30
-0.0000000000001137
 11
516.1357387293501
 21
191.45298427722
 31
-0.0000000000001137
  0
LINE
  5
10BAE
  8
CONTOUR
 10
516.1357387293501
 20
191.45298427722
 30
-0.0000000000001137
 11
516.1357387293501
 21
206.4420585178069
 31
-0.0000000000001137
  0
ARC
  5
10BAF
  8
CONTOUR
 10
509.2357387293496
 20
206.4420585178069
 30
-0.0000000000001137
 40
6.899999999999999
 50
0.0
 51
45.60451024142418
  0
ARC
  5
10BB0
  8
CONTOUR
 10
497.9357387293494
 20
194.9010612002963
 30
-0.0000000000001137
 40
23.05192307692374
 50
45.60451024142418
 51
134.3954897585758
  0
ARC
  5
10BB1
  8
CONTOUR
 10
486.6357387293483
 20
206.4420585178062
 30
-0.0000000000001137
 40
6.899999999999999
 50
134.3954897585483
 51
180.0
  0
LINE
  5
10BB2
  8
CONTOUR
 10
479.7357387293487
 20
206.4420585178062
 30
-0.0000000000001137
 11
479.7357387293496
 21
191.45298427722
 31
-0.0000000000001137
  0
LINE
  5
10BB3
  8
CONTOUR
 10
479.7357387293487
 20
191.45298427722
 30
-0.0000000000001137
 11
477.7357387293487
 21
191.45298427722
 31
-0.0000000000001137
  0
LINE
  5
10BB4
  8
CONTOUR
 10
477.7357387293496
 20
191.45298427722
 30
-0.0000000000001137
 11
477.7357387293487
 21
206.4420585178062
 31
-0.0000000000001137
  0
ARC
  5
10BB5
  8
CONTOUR
 10
486.6357387293483
 20
206.4420585178062
 30
-0.0000000000001137
 40
8.9
 50
134.3954897585483
 51
180.0
  0
ARC
  5
10BB6
  8
CONTOUR
 10
497.9357387293494
 20
194.9010612002963
 30
-0.0000000000001137
 40
25.05192307692374
 50
45.60451024142418
 51
134.3954897585758
  0
ARC
  5
10BB7
  8
CONTOUR
 10
509.2357387293496
 20
206.4420585178069
 30
-0.0000000000001137
 40
8.9
 50
0.0
 51
45.60451024142418
  0
LINE
  5
10BB8
  8
CONTOUR
 10
518.1357387293501
 20
206.4420585178069
 30
-0.0000000000001137
 11
518.1357387293501
 21
191.45298427722
 31
-0.0000000000001137
  0
ARC
  5
10BB9
  8
CONTOUR
 10
515.3559433279734
 20
208.3137143812033
 30
-0.0000000000001137
 40
0.5
 50
237.9305858048862
 51
17.00446505954162
  0
ARC
  5
10BBA
  8
CONTOUR
 10
512.4357387293494
 20
203.6529842772201
 30
-0.0000000000001137
 40
4.999999999999999
 50
57.93058580488623
 51
95.5767295075391
  0
ARC
  5
10BBB
  8
CONTOUR
 10
511.9012559707289
 20
209.1269525070089
 30
-0.0000000000001137
 40
0.5
 50
201.4033496394093
 51
275.5767295075391
  0
ARC
  5
10BBC
  8
CONTOUR
 10
497.9357387293494
 20
203.6529842772201
 30
-0.0000000000001137
 40
14.5
 50
21.40334963940937
 51
52.03361169641114
  0
ARC
  5
10BBD
  8
CONTOUR
 10
507.1637251529746
 20
215.4785610735283
 30
-0.0000000000001137
 40
0.5
 50
65.84613537889659
 51
232.0336116964111
  0
CIRCLE
  5
10BBE
  8
CONTOUR
 10
483.4357387293485
 20
203.6529842772203
 30
-0.0000000000001137
 40
3.499999999999886
  0
CIRCLE
  5
10BBF
  8
CONTOUR
 10
512.4357387293503
 20
203.6529842772203
 30
-0.0000000000001137
 40
3.499999999999886
  0
ARC
  5
10BC0
  8
CONTOUR
 10
507.3224314376466
 20
191.95298427722
 30
-0.0000000000001137
 40
1.0
 50
128.7394245978457
 51
209.9999999999987
  0
ARC
  5
10BC1
  8
CONTOUR
 10
497.9357387293494
 20
203.6529842772201
 30
-0.0000000000001137
 40
14.0
 50
308.7394245978489
 51
338.5966503605906
  0
ARC
  5
10BC2
  8
CONTOUR
 10
511.9012559707289
 20
198.1790160474312
 30
-0.0000000000001137
 40
0.9999999999999999
 50
84.42327049246084
 51
158.5966503605906
  0
ARC
  5
10BC3
  8
CONTOUR
 10
512.4357387293494
 20
203.6529842772201
 30
-0.0000000000001137
 40
4.499999999999999
 50
264.4232704924609
 51
305.5785257324562
  0
ARC
  5
10BC4
  8
CONTOUR
 10
515.6357387293501
 20
199.1797304279513
 30
-0.0000000000001137
 40
1.0
 50
60.00000000000001
 51
125.5785257324562
  0
ARC
  5
10BC5
  8
CONTOUR
 10
480.5155341307254
 20
208.313714381204
 30
-0.0000000000001137
 40
1.0
 50
226.8018950524486
 51
302.0694141951137
  0
ARC
  5
10BC6
  8
CONTOUR
 10
483.4357387293485
 20
203.6529842772201
 30
-0.0000000000001137
 40
4.5
 50
84.42327049246079
 51
122.0694141951094
  0
ARC
  5
10BC7
  8
CONTOUR
 10
483.9702214879699
 20
209.1269525070087
 30
-0.0000000000001137
 40
1.0
 50
264.4232704924609
 51
338.5966503605906
  0
ARC
  5
10BC8
  8
CONTOUR
 10
497.9357387293494
 20
203.6529842772201
 30
-0.0000000000001137
 40
14.0
 50
127.9663883035889
 51
158.5966503605906
  0
ARC
  5
10BC9
  8
CONTOUR
 10
488.7077523057233
 20
215.4785610735279
 30
-0.0000000000001137
 40
1.0
 50
307.9663883035889
 51
53.05971063609768
  0
ARC
  5
10BCA
  8
CONTOUR
 10
488.5490460210522
 20
191.95298427722
 30
-0.0000000000001137
 40
1.0
 50
330.0000000000013
 51
51.26057540215431
  0
ARC
  5
10BCB
  8
CONTOUR
 10
497.9357387293494
 20
203.6529842772201
 30
-0.0000000000001137
 40
14.0
 50
201.4033496394093
 51
231.2605754021511
  0
ARC
  5
10BCC
  8
CONTOUR
 10
483.9702214879699
 20
198.1790160474314
 30
-0.0000000000001137
 40
1.0
 50
21.40334963940937
 51
95.57672950753916
  0
ARC
  5
10BCD
  8
CONTOUR
 10
483.4357387293485
 20
203.6529842772201
 30
-0.0000000000001137
 40
4.5
 50
234.4214742675466
 51
275.5767295075392
  0
ARC
  5
10BCE
  8
CONTOUR
 10
480.2357387293487
 20
199.1797304279509
 30
-0.0000000000001137
 40
1.0
 50
54.42147426754384
 51
120.0
  0
ARC
  5
10BCF
  8
CONTOUR
 10
497.9357387293494
 20
203.6529842772203
 30
-0.0000000000001137
 40
10.0
 50
64.1580343754594
 51
75.8458075497533
  0
ARC
  5
10BD0
  8
CONTOUR
 10
497.9357387293494
 20
203.6529842772203
 30
-0.0000000000001137
 40
10.0
 50
44.15419245024615
 51
55.84196562451785
  0
ARC
  5
10BD1
  8
CONTOUR
 10
497.9357387293494
 20
203.6529842772203
 30
-0.0000000000001137
 40
10.0
 50
4.158034375464298
 51
15.84580754975153
  0
ARC
  5
10BD2
  8
CONTOUR
 10
497.9357387293494
 20
203.6529842772203
 30
-0.0000000000001137
 40
10.0
 50
344.1541924502484
 51
355.8419656245355
  0
ARC
  5
10BD3
  8
CONTOUR
 10
497.9357387293494
 20
203.6529842772203
 30
-0.0000000000001137
 40
10.0
 50
304.1580343754606
 51
315.8458075497539
  0
ARC
  5
10BD4
  8
CONTOUR
 10
497.9357387293494
 20
203.6529842772203
 30
-0.0000000000001137
 40
10.0
 50
284.1541924502463
 51
295.8419656245434
  0
ARC
  5
10BD5
  8
CONTOUR
 10
497.9357387293494
 20
203.6529842772203
 30
-0.0000000000001137
 40
10.0
 50
244.1580343754566
 51
255.8458075497541
  0
ARC
  5
10BD6
  8
CONTOUR
 10
497.9357387293494
 20
203.6529842772203
 30
-0.0000000000001137
 40
10.0
 50
224.1541924502413
 51
235.8419656245178
  0
ARC
  5
10BD7
  8
CONTOUR
 10
497.9357387293494
 20
203.6529842772203
 30
-0.0000000000001137
 40
10.0
 50
184.1580343754642
 51
195.8458075497515
  0
ARC
  5
10BD8
  8
CONTOUR
 10
497.9357387293494
 20
203.6529842772203
 30
-0.0000000000001137
 40
10.0
 50
164.1541924502484
 51
175.8419656245357
  0
ARC
  5
10BD9
  8
CONTOUR
 10
497.9357387293494
 20
203.6529842772203
 30
-0.0000000000001137
 40
10.0
 50
124.1580343754581
 51
135.845807549749
  0
ARC
  5
10BDA
  8
CONTOUR
 10
497.9357387293494
 20
203.6529842772203
 30
-0.0000000000001137
 40
10.0
 50
104.1541924502471
 51
115.8419656245172
  0
LINE
  5
10BDB
  8
CONTOUR
 10
506.0557387293493
 20
197.232849283832
 30
-0.0000000000001137
 11
503.9041916673423
 21
195.990653008408
 31
-0.0000000000001137
  0
LINE
  5
10BDC
  8
CONTOUR
 10
501.5872857913573
 20
194.6529867772211
 30
-0.0000000000001137
 11
499.4357387293494
 21
193.4107905017967
 31
-0.0000000000001137
  0
ARC
  5
10BDD
  8
CONTOUR
 10
497.9357387293494
 20
196.00886671315
 30
-0.0000000000001137
 40
2.999999999999952
 50
240.0
 51
300.0
  0
LINE
  5
10BDE
  8
CONTOUR
 10
496.4357387293494
 20
193.4107905017969
 30
-0.0000000000001137
 11
494.2841916673415
 21
194.6529867772211
 31
-0.0000000000001137
  0
LINE
  5
10BDF
  8
CONTOUR
 10
491.9672857913565
 20
195.9906530084085
 30
-0.0000000000001137
 11
489.8157387293495
 21
197.2328492838323
 31
-0.0000000000001137
  0
ARC
  5
10BE0
  8
CONTOUR
 10
491.3157387293495
 20
199.8309254951852
 30
-0.0000000000001137
 40
2.999999999999982
 50
180.0
 51
240.0
  0
LINE
  5
10BE1
  8
CONTOUR
 10
488.3157387293495
 20
199.8309254951852
 30
-0.0000000000001137
 11
488.3157387293495
 21
202.3153180460332
 31
-0.0000000000001137
  0
LINE
  5
10BE2
  8
CONTOUR
 10
488.3157387293495
 20
204.9906505084085
 30
-0.0000000000001137
 11
488.3157387293495
 21
207.4750430592563
 31
-0.0000000000001137
  0
ARC
  5
10BE3
  8
CONTOUR
 10
491.3157387293495
 20
207.4750430592559
 30
-0.0000000000001137
 40
2.999999999999982
 50
120.0
 51
179.999999999987
  0
LINE
  5
10BE4
  8
CONTOUR
 10
489.8157387293495
 20
210.0731192706095
 30
-0.0000000000001137
 11
491.9672857913565
 21
211.3153155460337
 31
-0.0000000000001137
  0
LINE
  5
10BE5
  8
CONTOUR
 10
494.2841916673415
 20
212.6529817772204
 30
-0.0000000000001137
 11
496.4357387293494
 21
213.8951780526451
 31
-0.0000000000001137
  0
ARC
  5
10BE6
  8
CONTOUR
 10
497.9357387293494
 20
211.2971018412915
 30
-0.0000000000001137
 40
2.999999999999952
 50
60.00000000000001
 51
120.0
  0
LINE
  5
10BE7
  8
CONTOUR
 10
499.4357387293494
 20
213.8951780526446
 30
-0.0000000000001137
 11
501.5872857913573
 21
212.6529817772204
 31
-0.0000000000001137
  0
LINE
  5
10BE8
  8
CONTOUR
 10
503.9041916673432
 20
211.3153155460328
 30
-0.0000000000001137
 11
506.0557387293493
 21
210.0731192706093
 31
-0.0000000000001137
  0
ARC
  5
10BE9
  8
CONTOUR
 10
504.5557387293493
 20
207.4750430592559
 30
-0.0000000000001137
 40
2.999999999999982
 50
0.0
 51
60.00000000000001
  0
LINE
  5
10BEA
  8
CONTOUR
 10
507.5557387293493
 20
207.4750430592563
 30
-0.0000000000001137
 11
507.5557387293493
 21
204.9906505084081
 31
-0.0000000000001137
  0
LINE
  5
10BEB
  8
CONTOUR
 10
507.5557387293493
 20
202.3153180460337
 30
-0.0000000000001137
 11
507.5557387293493
 21
199.8309254951852
 31
-0.0000000000001137
  0
ARC
  5
10BEC
  8
CONTOUR
 10
504.5557387293493
 20
199.8309254951852
 30
-0.0000000000001137
 40
2.999999999999982
 50
300.0
 51
0.0
  0
LINE
  5
10BED
  8
CONTOUR
 10
492.9165093543497
 20
194.959423984879
 30
-0.0000000000001137
 11
492.3857445413569
 21
195.2658611925368
 31
-0.0000000000001137
  0
LINE
  5
10BEE
  8
CONTOUR
 10
492.385744541356
 20
195.2658611925366
 30
-0.0000000000001137
 11
492.3647249737169
 21
195.3022681516419
 31
-0.0000000000001137
  0
CIRCLE
  5
10BEF
  8
CONTOUR
 10
497.9357387293494
 20
203.6529842772203
 30
-0.0000000000001137
 40
5.192306250000315
  0
CIRCLE
  5
10BF0
  8
CONTOUR
 10
497.9357387293494
 20
203.6529842772203
 30
-0.0000000000001137
 40
8.653843750000314
  0
POLYLINE
  5
10BF1
  8
CONTOUR
 10
0.0
 20
0.0
 30
0.0
 66
     1
 70
     8
  0
VERTEX
  5
11EFF
  8
CONTOUR
 10
487.9182995469891
 20
204.302265651642
 30
-0.0000000000001137
 70
    32
  0
VERTEX
  5
11F00
  8
CONTOUR
 10
488.2221539972888
 20
204.8285569976669
 30
-0.0000000000001137
 70
    32
  0
VERTEX
  5
11F01
  8
CONTOUR
 10
488.5151526669895
 20
205.3360455801385
 30
-0.0000000000001137
 70
    32
  0
VERTEX
  5
11F02
  8
CONTOUR
 10
488.7991951503975
 20
205.828021592909
 30
-0.0000000000001137
 70
    32
  0
VERTEX
  5
11F03
  8
CONTOUR
 10
489.0760093931187
 20
206.3074779255609
 30
-0.0000000000001137
 70
    32
  0
VERTEX
  5
11F04
  8
CONTOUR
 10
489.3471894815731
 20
206.7771756167649
 30
-0.0000000000001137
 70
    32
  0
VERTEX
  5
11F05
  8
CONTOUR
 10
489.6142280592359
 20
207.2397000008578
 30
-0.0000000000001137
 70
    32
  0
VERTEX
  5
11F06
  8
CONTOUR
 10
489.878544819705
 20
207.697510059282
 30
-0.0000000000001137
 70
    32
  0
VERTEX
  5
11F07
  8
CONTOUR
 10
490.1415122603531
 20
208.1529830272208
 30
-0.0000000000001137
 70
    32
  0
VERTEX
  5
11F08
  8
CONTOUR
 10
490.4044797010011
 20
208.6084559951596
 30
-0.0000000000001137
 70
    32
  0
VERTEX
  5
11F09
  8
CONTOUR
 10
490.6687964614702
 20
209.0662660535839
 30
-0.0000000000001137
 70
    32
  0
VERTEX
  5
11F0A
  8
CONTOUR
 10
490.935835039133
 20
209.5287904376767
 30
-0.0000000000001137
 70
    32
  0
VERTEX
  5
11F0B
  8
CONTOUR
 10
491.2070151275873
 20
209.9984881288807
 30
-0.0000000000001137
 70
    32
  0
VERTEX
  5
11F0C
  8
CONTOUR
 10
491.4838293703085
 20
210.4779444615325
 30
-0.0000000000001137
 70
    32
  0
VERTEX
  5
11F0D
  8
CONTOUR
 10
491.7678718537165
 20
210.9699204743031
 30
-0.0000000000001137
 70
    32
  0
VERTEX
  5
11F0E
  8
CONTOUR
 10
492.0608705234172
 20
211.4774090567747
 30
-0.0000000000001137
 70
    32
  0
VERTEX
  5
11F0F
  8
CONTOUR
 10
492.3647249737169
 20
212.0037004027996
 30
-0.0000000000001137
 70
    32
  0
SEQEND
  5
12015
  8
CONTOUR
  0
POLYLINE
  5
10BF2
  8
CONTOUR
 10
0.0
 20
0.0
 30
0.0
 66
     1
 70
     8
  0
VERTEX
  5
11F10
  8
CONTOUR
 10
493.4893133026226
 20
212.6529817772204
 30
-0.0000000000001137
 70
    32
  0
VERTEX
  5
11F11
  8
CONTOUR
 10
494.0970222032218
 20
212.6529817772204
 30
-0.0000000000001137
 70
    32
  0
VERTEX
  5
11F12
  8
CONTOUR
 10
494.6830195426231
 20
212.6529817772203
 30
-0.0000000000001137
 70
    32
  0
VERTEX
  5
11F13
  8
CONTOUR
 10
495.251104509439
 20
212.6529817772203
 30
-0.0000000000001137
 70
    32
  0
VERTEX
  5
11F14
  8
CONTOUR
 10
495.8047329948812
 20
212.6529817772203
 30
-0.0000000000001137
 70
    32
  0
VERTEX
  5
11F15
  8
CONTOUR
 10
496.3470931717899
 20
212.6529817772204
 30
-0.0000000000001137
 70
    32
  0
VERTEX
  5
11F16
  8
CONTOUR
 10
496.8811703271156
 20
212.6529817772204
 30
-0.0000000000001137
 70
    32
  0
VERTEX
  5
11F17
  8
CONTOUR
 10
497.4098038480533
 20
212.6529817772204
 30
-0.0000000000001137
 70
    32
  0
VERTEX
  5
11F18
  8
CONTOUR
 10
497.9357387293494
 20
212.6529817772204
 30
-0.0000000000001137
 70
    32
  0
VERTEX
  5
11F19
  8
CONTOUR
 10
498.4616736106456
 20
212.6529817772204
 30
-0.0000000000001137
 70
    32
  0
VERTEX
  5
11F1A
  8
CONTOUR
 10
498.9903071315834
 20
212.6529817772204
 30
-0.0000000000001137
 70
    32
  0
VERTEX
  5
11F1B
  8
CONTOUR
 10
499.5243842869088
 20
212.6529817772203
 30
-0.0000000000001137
 70
    32
  0
VERTEX
  5
11F1C
  8
CONTOUR
 10
500.0667444638175
 20
212.6529817772204
 30
-0.0000000000001137
 70
    32
  0
VERTEX
  5
11F1D
  8
CONTOUR
 10
500.6203729492599
 20
212.6529817772203
 30
-0.0000000000001137
 70
    32
  0
VERTEX
  5
11F1E
  8
CONTOUR
 10
501.1884579160757
 20
212.6529817772204
 30
-0.0000000000001137
 70
    32
  0
VERTEX
  5
11F1F
  8
CONTOUR
 10
501.7744552554771
 20
212.6529817772204
 30
-0.0000000000001137
 70
    32
  0
VERTEX
  5
11F20
  8
CONTOUR
 10
502.3821641560762
 20
212.6529817772204
 30
-0.0000000000001137
 70
    32
  0
SEQEND
  5
12016
  8
CONTOUR
  0
POLYLINE
  5
10BF3
  8
CONTOUR
 10
0.0
 20
0.0
 30
0.0
 66
     1
 70
     8
  0
VERTEX
  5
11F21
  8
CONTOUR
 10
503.5067524849828
 20
212.0037004027996
 30
-0.0000000000001137
 70
    32
  0
VERTEX
  5
11F22
  8
CONTOUR
 10
503.8106069352824
 20
211.4774090567748
 30
-0.0000000000001137
 70
    32
  0
VERTEX
  5
11F23
  8
CONTOUR
 10
504.103605604983
 20
210.9699204743031
 30
-0.0000000000001137
 70
    32
  0
VERTEX
  5
11F24
  8
CONTOUR
 10
504.3876480883909
 20
210.4779444615325
 30
-0.0000000000001137
 70
    32
  0
VERTEX
  5
11F25
  8
CONTOUR
 10
504.664462331112
 20
209.9984881288806
 30
-0.0000000000001137
 70
    32
  0
VERTEX
  5
11F26
  8
CONTOUR
 10
504.9356424195664
 20
209.5287904376767
 30
-0.0000000000001137
 70
    32
  0
VERTEX
  5
11F27
  8
CONTOUR
 10
505.2026809972291
 20
209.0662660535839
 30
-0.0000000000001137
 70
    32
  0
VERTEX
  5
11F28
  8
CONTOUR
 10
505.4669977576979
 20
208.6084559951596
 30
-0.0000000000001137
 70
    32
  0
VERTEX
  5
11F29
  8
CONTOUR
 10
505.7299651983461
 20
208.1529830272208
 30
-0.0000000000001137
 70
    32
  0
VERTEX
  5
11F2A
  8
CONTOUR
 10
505.992932638994
 20
207.6975100592819
 30
-0.0000000000001137
 70
    32
  0
VERTEX
  5
11F2B
  8
CONTOUR
 10
506.2572493994629
 20
207.2397000008577
 30
-0.0000000000001137
 70
    32
  0
VERTEX
  5
11F2C
  8
CONTOUR
 10
506.5242879771257
 20
206.7771756167649
 30
-0.0000000000001137
 70
    32
  0
VERTEX
  5
11F2D
  8
CONTOUR
 10
506.7954680655802
 20
206.3074779255609
 30
-0.0000000000001137
 70
    32
  0
VERTEX
  5
11F2E
  8
CONTOUR
 10
507.0722823083015
 20
205.828021592909
 30
-0.0000000000001137
 70
    32
  0
VERTEX
  5
11F2F
  8
CONTOUR
 10
507.3563247917093
 20
205.3360455801385
 30
-0.0000000000001137
 70
    32
  0
VERTEX
  5
11F30
  8
CONTOUR
 10
507.64932346141
 20
204.8285569976668
 30
-0.0000000000001137
 70
    32
  0
VERTEX
  5
11F31
  8
CONTOUR
 10
507.9531779117096
 20
204.302265651642
 30
-0.0000000000001137
 70
    32
  0
SEQEND
  5
12017
  8
CONTOUR
  0
POLYLINE
  5
10BF4
  8
CONTOUR
 10
0.0
 20
0.0
 30
0.0
 66
     1
 70
     8
  0
VERTEX
  5
11F32
  8
CONTOUR
 10
507.9531779117097
 20
203.0037029027996
 30
-0.0000000000001137
 70
    32
  0
VERTEX
  5
11F33
  8
CONTOUR
 10
507.6493234614099
 20
202.4774115567747
 30
-0.0000000000001137
 70
    32
  0
VERTEX
  5
11F34
  8
CONTOUR
 10
507.3563247917093
 20
201.969922974303
 30
-0.0000000000001137
 70
    32
  0
VERTEX
  5
11F35
  8
CONTOUR
 10
507.0722823083014
 20
201.4779469615325
 30
-0.0000000000001137
 70
    32
  0
VERTEX
  5
11F36
  8
CONTOUR
 10
506.7954680655802
 20
200.9984906288806
 30
-0.0000000000001137
 70
    32
  0
VERTEX
  5
11F37
  8
CONTOUR
 10
506.5242879771257
 20
200.5287929376766
 30
-0.0000000000001137
 70
    32
  0
VERTEX
  5
11F38
  8
CONTOUR
 10
506.2572493994629
 20
200.0662685535838
 30
-0.0000000000001137
 70
    32
  0
VERTEX
  5
11F39
  8
CONTOUR
 10
505.9929326389939
 20
199.6084584951595
 30
-0.0000000000001137
 70
    32
  0
VERTEX
  5
11F3A
  8
CONTOUR
 10
505.7299651983458
 20
199.1529855272207
 30
-0.0000000000001137
 70
    32
  0
VERTEX
  5
11F3B
  8
CONTOUR
 10
505.4669977576976
 20
198.6975125592819
 30
-0.0000000000001137
 70
    32
  0
VERTEX
  5
11F3C
  8
CONTOUR
 10
505.2026809972288
 20
198.2397025008577
 30
-0.0000000000001137
 70
    32
  0
VERTEX
  5
11F3D
  8
CONTOUR
 10
504.9356424195659
 20
197.7771781167649
 30
-0.0000000000001137
 70
    32
  0
VERTEX
  5
11F3E
  8
CONTOUR
 10
504.6644623311115
 20
197.3074804255608
 30
-0.0000000000001137
 70
    32
  0
VERTEX
  5
11F3F
  8
CONTOUR
 10
504.3876480883903
 20
196.828024092909
 30
-0.0000000000001137
 70
    32
  0
VERTEX
  5
11F40
  8
CONTOUR
 10
504.1036056049824
 20
196.3360480801385
 30
-0.0000000000001137
 70
    32
  0
VERTEX
  5
11F41
  8
CONTOUR
 10
503.8106069352816
 20
195.8285594976668
 30
-0.0000000000001137
 70
    32
  0
VERTEX
  5
11F42
  8
CONTOUR
 10
503.506752484982
 20
195.3022681516419
 30
-0.0000000000001137
 70
    32
  0
SEQEND
  5
12018
  8
CONTOUR
  0
POLYLINE
  5
10BF5
  8
CONTOUR
 10
0.0
 20
0.0
 30
0.0
 66
     1
 70
     8
  0
VERTEX
  5
11F43
  8
CONTOUR
 10
502.3821641560762
 20
194.6529867772211
 30
-0.0000000000001137
 70
    32
  0
VERTEX
  5
11F44
  8
CONTOUR
 10
501.774455255477
 20
194.6529867772211
 30
-0.0000000000001137
 70
    32
  0
VERTEX
  5
11F45
  8
CONTOUR
 10
501.1884579160756
 20
194.6529867772211
 30
-0.0000000000001137
 70
    32
  0
VERTEX
  5
11F46
  8
CONTOUR
 10
500.6203729492599
 20
194.6529867772211
 30
-0.0000000000001137
 70
    32
  0
VERTEX
  5
11F47
  8
CONTOUR
 10
500.0667444638176
 20
194.6529867772212
 30
-0.0000000000001137
 70
    32
  0
VERTEX
  5
11F48
  8
CONTOUR
 10
499.5243842869089
 20
194.6529867772211
 30
-0.0000000000001137
 70
    32
  0
VERTEX
  5
11F49
  8
CONTOUR
 10
498.9903071315833
 20
194.6529867772212
 30
-0.0000000000001137
 70
    32
  0
VERTEX
  5
11F4A
  8
CONTOUR
 10
498.4616736106456
 20
194.6529867772212
 30
-0.0000000000001137
 70
    32
  0
VERTEX
  5
11F4B
  8
CONTOUR
 10
497.9357387293495
 20
194.6529867772212
 30
-0.0000000000001137
 70
    32
  0
VERTEX
  5
11F4C
  8
CONTOUR
 10
497.4098038480534
 20
194.6529867772212
 30
-0.0000000000001137
 70
    32
  0
VERTEX
  5
11F4D
  8
CONTOUR
 10
496.8811703271155
 20
194.6529867772212
 30
-0.0000000000001137
 70
    32
  0
VERTEX
  5
11F4E
  8
CONTOUR
 10
496.3470931717899
 20
194.6529867772211
 30
-0.0000000000001137
 70
    32
  0
VERTEX
  5
11F4F
  8
CONTOUR
 10
495.8047329948812
 20
194.6529867772212
 30
-0.0000000000001137
 70
    32
  0
VERTEX
  5
11F50
  8
CONTOUR
 10
495.251104509439
 20
194.6529867772212
 30
-0.0000000000001137
 70
    32
  0
VERTEX
  5
11F51
  8
CONTOUR
 10
494.6830195426231
 20
194.6529867772211
 30
-0.0000000000001137
 70
    32
  0
VERTEX
  5
11F52
  8
CONTOUR
 10
494.0970222032217
 20
194.6529867772212
 30
-0.0000000000001137
 70
    32
  0
VERTEX
  5
11F53
  8
CONTOUR
 10
493.4893133026226
 20
194.6529867772211
 30
-0.0000000000001137
 70
    32
  0
SEQEND
  5
12019
  8
CONTOUR
  0
ARC
  5
10BF6
  8
CONTOUR
 10
497.9357387293494
 20
203.6529842772203
 30
-0.0000000000001137
 40
10.03845875
 50
236.2915552747337
 51
240.0
  0
POLYLINE
  5
10BF7
  8
CONTOUR
 10
0.0
 20
0.0
 30
0.0
 66
     1
 70
     8
  0
VERTEX
  5
11F54
  8
CONTOUR
 10
492.3647249737169
 20
195.3022681516419
 30
-0.0000000000001137
 70
    32
  0
VERTEX
  5
11F55
  8
CONTOUR
 10
492.0608705234173
 20
195.8285594976668
 30
-0.0000000000001137
 70
    32
  0
VERTEX
  5
11F56
  8
CONTOUR
 10
491.7678718537165
 20
196.3360480801384
 30
-0.0000000000001137
 70
    32
  0
VERTEX
  5
11F57
  8
CONTOUR
 10
491.4838293703085
 20
196.8280240929089
 30
-0.0000000000001137
 70
    32
  0
VERTEX
  5
11F58
  8
CONTOUR
 10
491.2070151275873
 20
197.3074804255608
 30
-0.0000000000001137
 70
    32
  0
VERTEX
  5
11F59
  8
CONTOUR
 10
490.9358350391329
 20
197.7771781167648
 30
-0.0000000000001137
 70
    32
  0
VERTEX
  5
11F5A
  8
CONTOUR
 10
490.6687964614702
 20
198.2397025008577
 30
-0.0000000000001137
 70
    32
  0
VERTEX
  5
11F5B
  8
CONTOUR
 10
490.4044797010012
 20
198.697512559282
 30
-0.0000000000001137
 70
    32
  0
VERTEX
  5
11F5C
  8
CONTOUR
 10
490.1415122603531
 20
199.1529855272207
 30
-0.0000000000001137
 70
    32
  0
VERTEX
  5
11F5D
  8
CONTOUR
 10
489.8785448197049
 20
199.6084584951595
 30
-0.0000000000001137
 70
    32
  0
VERTEX
  5
11F5E
  8
CONTOUR
 10
489.6142280592359
 20
200.0662685535838
 30
-0.0000000000001137
 70
    32
  0
VERTEX
  5
11F5F
  8
CONTOUR
 10
489.3471894815732
 20
200.5287929376766
 30
-0.0000000000001137
 70
    32
  0
VERTEX
  5
11F60
  8
CONTOUR
 10
489.0760093931186
 20
200.9984906288806
 30
-0.0000000000001137
 70
    32
  0
VERTEX
  5
11F61
  8
CONTOUR
 10
488.7991951503975
 20
201.4779469615324
 30
-0.0000000000001137
 70
    32
  0
VERTEX
  5
11F62
  8
CONTOUR
 10
488.5151526669896
 20
201.969922974303
 30
-0.0000000000001137
 70
    32
  0
VERTEX
  5
11F63
  8
CONTOUR
 10
488.2221539972888
 20
202.4774115567747
 30
-0.0000000000001137
 70
    32
  0
VERTEX
  5
11F64
  8
CONTOUR
 10
487.9182995469891
 20
203.0037029027995
 30
-0.0000000000001137
 70
    32
  0
SEQEND
  5
1201A
  8
CONTOUR
  0
LINE
  5
10BF8
  8
CONTOUR
 10
487.8972799793492
 20
203.0401098619046
 30
-0.0000000000001137
 11
487.8972799793492
 21
203.6529842772203
 31
-0.0000000000001137
  0
ARC
  5
10BF9
  8
CONTOUR
 10
497.9357387293494
 20
203.6529842772203
 30
-0.0000000000001137
 40
10.03845875
 50
180.0
 51
183.7084447252582
  0
LINE
  5
10BFA
  8
CONTOUR
 10
487.9182995469891
 20
203.0037029027995
 30
-0.0000000000001137
 11
487.8972799793492
 21
203.0401098619046
 31
-0.0000000000001137
  0
ARC
  5
10BFB
  8
CONTOUR
 10
497.9357387293494
 20
203.6529842772203
 30
-0.0000000000001137
 40
10.03845875
 50
240.0
 51
243.7084447252598
  0
LINE
  5
10BFC
  8
CONTOUR
 10
493.4893133026226
 20
194.6529867772211
 30
-0.0000000000001137
 11
493.4472741673426
 21
194.6529867772211
 31
-0.0000000000001137
  0
LINE
  5
10BFD
  8
CONTOUR
 10
493.4472741673426
 20
194.6529867772211
 30
-0.0000000000001137
 11
492.9165093543497
 21
194.959423984879
 31
-0.0000000000001137
  0
ARC
  5
10BFE
  8
CONTOUR
 10
497.9357387293494
 20
203.6529842772203
 30
-0.0000000000001137
 40
10.03845875
 50
296.2915552747401
 51
300.0
  0
LINE
  5
10BFF
  8
CONTOUR
 10
502.9549681043491
 20
194.959423984879
 30
-0.0000000000001137
 11
502.4242032913562
 21
194.6529867772211
 31
-0.0000000000001137
  0
LINE
  5
10C00
  8
CONTOUR
 10
502.4242032913562
 20
194.6529867772211
 30
-0.0000000000001137
 11
502.3821641560762
 21
194.6529867772211
 31
-0.0000000000001137
  0
LINE
  5
10C01
  8
CONTOUR
 10
492.385744541356
 20
212.0401073619056
 30
-0.0000000000001137
 11
492.9165093543497
 21
212.3465445695637
 31
-0.0000000000001137
  0
ARC
  5
10C02
  8
CONTOUR
 10
497.9357387293494
 20
203.6529842772203
 30
-0.0000000000001137
 40
10.03845875
 50
120.0
 51
123.7084447252664
  0
LINE
  5
10C03
  8
CONTOUR
 10
492.3647249737169
 20
212.0037004027996
 30
-0.0000000000001137
 11
492.3857445413569
 21
212.0401073619049
 31
-0.0000000000001137
  0
ARC
  5
10C04
  8
CONTOUR
 10
497.9357387293494
 20
203.6529842772203
 30
-0.0000000000001137
 40
10.03845875
 50
300.0
 51
303.7084447252664
  0
LINE
  5
10C05
  8
CONTOUR
 10
503.5067524849819
 20
195.3022681516419
 30
-0.0000000000001137
 11
503.4857329173428
 21
195.2658611925368
 31
-0.0000000000001137
  0
LINE
  5
10C06
  8
CONTOUR
 10
503.4857329173419
 20
195.2658611925368
 30
-0.0000000000001137
 11
502.9549681043491
 21
194.959423984879
 31
-0.0000000000001137
  0
LINE
  5
10C07
  8
CONTOUR
 10
487.8972799793492
 20
204.265858692536
 30
-0.0000000000001137
 11
487.9182995469891
 21
204.302265651642
 31
-0.0000000000001137
  0
ARC
  5
10C08
  8
CONTOUR
 10
497.9357387293494
 20
203.6529842772203
 30
-0.0000000000001137
 40
10.03845875
 50
176.291555274729
 51
180.0
  0
LINE
  5
10C09
  8
CONTOUR
 10
487.8972799793492
 20
203.6529842772203
 30
-0.0000000000001137
 11
487.8972799793492
 21
204.265858692536
 31
-0.0000000000001137
  0
ARC
  5
10C0A
  8
CONTOUR
 10
497.9357387293494
 20
203.6529842772203
 30
-0.0000000000001137
 40
10.03845875
 50
356.2915552747289
 51
0.0
  0
LINE
  5
10C0B
  8
CONTOUR
 10
507.9741974793496
 20
203.6529842772203
 30
-0.0000000000001137
 11
507.9741974793496
 21
203.0401098619046
 31
-0.0000000000001137
  0
LINE
  5
10C0C
  8
CONTOUR
 10
507.9741974793496
 20
203.0401098619049
 30
-0.0000000000001137
 11
507.9531779117096
 21
203.0037029027995
 31
-0.0000000000001137
  0
LINE
  5
10C0D
  8
CONTOUR
 10
502.4242032913562
 20
212.6529817772206
 30
-0.0000000000001137
 11
502.9549681043491
 21
212.3465445695632
 31
-0.0000000000001137
  0
ARC
  5
10C0E
  8
CONTOUR
 10
497.9357387293494
 20
203.6529842772203
 30
-0.0000000000001137
 40
10.03845875
 50
60.00000000000188
 51
63.70844472526125
  0
LINE
  5
10C0F
  8
CONTOUR
 10
502.3821641560762
 20
212.6529817772204
 30
-0.0000000000001137
 11
502.4242032913562
 21
212.6529817772204
 31
-0.0000000000001137
  0
ARC
  5
10C10
  8
CONTOUR
 10
497.9357387293494
 20
203.6529842772203
 30
-0.0000000000001137
 40
10.03845875
 50
0.0
 51
3.708444725271005
  0
LINE
  5
10C11
  8
CONTOUR
 10
507.9531779117096
 20
204.3022656516422
 30
-0.0000000000001137
 11
507.9741974793496
 21
204.2658586925364
 31
-0.0000000000001137
  0
LINE
  5
10C12
  8
CONTOUR
 10
507.9741974793496
 20
204.265858692536
 30
-0.0000000000001137
 11
507.9741974793496
 21
203.6529842772203
 31
-0.0000000000001137
  0
LINE
  5
10C13
  8
CONTOUR
 10
493.4472741673426
 20
212.6529817772204
 30
-0.0000000000001137
 11
493.4893133026226
 21
212.6529817772204
 31
-0.0000000000001137
  0
ARC
  5
10C14
  8
CONTOUR
 10
497.9357387293494
 20
203.6529842772203
 30
-0.0000000000001137
 40
10.03845875
 50
116.2915552747154
 51
120.0
  0
LINE
  5
10C15
  8
CONTOUR
 10
492.9165093543497
 20
212.3465445695637
 30
-0.0000000000001137
 11
493.4472741673417
 21
212.6529817772213
 31
-0.0000000000001137
  0
LINE
  5
10C16
  8
CONTOUR
 10
503.4857329173428
 20
212.0401073619051
 30
-0.0000000000001137
 11
503.5067524849828
 21
212.0037004027996
 31
-0.0000000000001137
  0
ARC
  5
10C17
  8
CONTOUR
 10
497.9357387293494
 20
203.6529842772203
 30
-0.0000000000001137
 40
10.03845875
 50
56.29155527473363
 51
60.00000000000188
  0
LINE
  5
10C18
  8
CONTOUR
 10
502.9549681043491
 20
212.3465445695632
 30
-0.0000000000001137
 11
503.4857329173428
 21
212.0401073619049
 31
-0.0000000000001137
  0
CIRCLE
  5
10C19
  8
CONTOUR
 10
497.9357387293494
 20
203.6529842772203
 30
-0.0000000000001137
 40
4.49999875
  0
LINE
  5
10C1A
  8
CENTER
 10
424.4672446993827
 20
301.9325021120613
 30
0.0
 11
58.01163815273139
 21
301.9325021120604
 31
0.0
  0
LINE
  5
10C1B
  8
CENTER
 10
497.9357387293494
 20
187.45298427722
 30
-0.0000000000001137
 11
497.9357387293494
 21
221.9529842772201
 31
-0.0000000000001137
  0
LINE
  5
10C1C
  8
CENTER
 10
509.9741974793496
 20
203.6529842772203
 30
-0.0000000000001137
 11
485.8972799793492
 21
203.6529842772203
 31
-0.0000000000001137
  0
LINE
  5
10C1D
  8
CENTER
 10
65.0116381527314
 20
311.1825021120603
 30
0.0
 11
65.0116381527314
 21
319.6825021120603
 31
0.0
  0
LINE
  5
10C1E
  8
CENTER
 10
70.0116381527314
 20
315.4325021120605
 30
0.0
 11
60.01163815273139
 21
315.4325021120605
 31
0.0
  0
LINE
  5
10C1F
  8
CENTER
 10
65.0116381527314
 20
284.1825021120602
 30
0.0
 11
65.0116381527314
 21
292.6825021120602
 31
0.0
  0
LINE
  5
10C20
  8
CENTER
 10
70.0116381527314
 20
288.4325021120604
 30
0.0
 11
60.01163815273139
 21
288.4325021120604
 31
0.0
  0
LINE
  5
10C21
  8
CENTER
 10
355.0116381527314
 20
311.1825021120603
 30
0.0
 11
355.0116381527314
 21
319.6825021120603
 31
0.0
  0
LINE
  5
10C22
  8
CENTER
 10
350.0116381527314
 20
315.4325021120605
 30
0.0
 11
360.0116381527314
 21
315.4325021120605
 31
0.0
  0
LINE
  5
10C23
  8
CENTER
 10
355.0116381527314
 20
284.1825021120602
 30
0.0
 11
355.0116381527314
 21
292.6825021120602
 31
0.0
  0
LINE
  5
10C24
  8
CENTER
 10
350.0116381527314
 20
288.4325021120604
 30
0.0
 11
360.0116381527314
 21
288.4325021120604
 31
0.0
  0
LINE
  5
10C25
  8
CONTOUR
 10
99.0116381527314
 20
196.3529842772201
 30
-0.0000000000001122
 11
81.0116381527314
 21
196.3529842772201
 31
-0.0000000000001122
210
0.0
220
1.0
230
2.220446049250313E-16
  0
LINE
  5
10C26
  8
CONTOUR
 10
81.0116381527314
 20
189.4529842772201
 30
-0.0000000000001137
 11
60.01163815273139
 21
189.4529842772201
 31
-0.0000000000001137
210
0.0
220
1.0
230
2.220446049250313E-16
  0
LINE
  5
10C27
  8
CONTOUR
 10
81.0116381527314
 20
189.4529842772201
 30
-0.0000000000001137
 11
99.0116381527314
 21
189.4529842772201
 31
-0.0000000000001137
210
0.0
220
1.0
230
2.220446049250313E-16
  0
LINE
  5
10C28
  8
CONTOUR
 10
60.01163815273139
 20
191.4529842772201
 30
-0.0000000000001132
 11
60.01163815273139
 21
189.4529842772201
 31
-0.0000000000001137
210
0.0
220
1.0
230
2.220446049250313E-16
  0
LINE
  5
10C29
  8
CONTOUR
 10
73.0116381527314
 20
219.9529842772201
 30
-0.0000000000001069
 11
69.74949170554737
 21
212.8013555276245
 31
-0.0000000000001085
210
0.0
220
1.0
230
2.220446049250313E-16
  0
LINE
  5
10C2A
  8
CONTOUR
 10
69.74949170554692
 20
212.8013555276229
 30
-0.0000000000001085
 11
66.84875973615726
 21
206.4420585178069
 31
-0.0000000000001099
210
0.0
220
1.0
230
2.220446049250313E-16
  0
LINE
  5
10C2B
  8
CONTOUR
 10
66.84875973615726
 20
206.442058517807
 30
-0.0000000000001099
 11
60.01163815273139
 21
191.4529842772201
 31
-0.0000000000001132
210
0.0
220
1.0
230
2.220446049250313E-16
  0
LINE
  5
10C2C
  8
CONTOUR
 10
81.0116381527314
 20
196.3529842772201
 30
-0.0000000000001122
 11
81.0116381527314
 21
189.4529842772201
 31
-0.0000000000001137
210
0.0
220
1.0
230
2.220446049250313E-16
  0
LINE
  5
10C2D
  8
CONTOUR
 10
99.0116381527314
 20
189.4529842772201
 30
-0.0000000000001137
 11
99.0116381527314
 21
219.9529842772203
 31
-0.0000000000001069
210
0.0
220
1.0
230
2.220446049250313E-16
  0
LINE
  5
10C2E
  8
CONTOUR
 10
321.0116381527314
 20
191.35298427722
 30
-0.0000000000001133
 11
207.4345164337759
 21
191.35298427722
 31
-0.0000000000001133
210
0.0
220
1.0
230
2.220446049250313E-16
  0
LINE
  5
10C2F
  8
CONTOUR
 10
339.0116381527314
 20
189.4529842772201
 30
-0.0000000000001137
 11
360.0116381527314
 21
189.4529842772201
 31
-0.0000000000001137
210
0.0
220
1.0
230
2.220446049250313E-16
  0
LINE
  5
10C30
  8
CONTOUR
 10
360.0116381527314
 20
189.4529842772201
 30
-0.0000000000001137
 11
360.0116381527314
 21
191.4529842772201
 31
-0.0000000000001132
210
0.0
220
1.0
230
2.220446049250313E-16
  0
LINE
  5
10C31
  8
CONTOUR
 10
360.0116381527314
 20
191.4529842772201
 30
-0.0000000000001132
 11
353.1745165693064
 21
206.4420585178063
 31
-0.0000000000001099
210
0.0
220
1.0
230
2.220446049250313E-16
  0
LINE
  5
10C32
  8
CONTOUR
 10
353.1745165693064
 20
206.4420585178063
 30
-0.0000000000001099
 11
350.2737845999163
 21
212.8013555276229
 31
-0.0000000000001085
210
0.0
220
1.0
230
2.220446049250313E-16
  0
LINE
  5
10C33
  8
CONTOUR
 10
350.2737845999154
 20
212.8013555276245
 30
-0.0000000000001085
 11
347.0116381527314
 21
219.9529842772201
 31
-0.0000000000001069
210
0.0
220
1.0
230
2.220446049250313E-16
  0
LINE
  5
10C34
  8
CONTOUR
 10
339.0116381527314
 20
196.3529842772201
 30
-0.0000000000001122
 11
339.0116381527314
 21
189.4529842772201
 31
-0.0000000000001137
210
0.0
220
1.0
230
2.220446049250313E-16
  0
LINE
  5
10C35
  8
CONTOUR
 10
321.0116381527314
 20
189.45298427722
 30
-0.0000000000001137
 11
339.0116381527314
 21
189.4529842772201
 31
-0.0000000000001137
210
0.0
220
1.0
230
2.220446049250313E-16
  0
LINE
  5
10C36
  8
CONTOUR
 10
321.0116381527314
 20
196.3529842772201
 30
-0.0000000000001122
 11
339.0116381527314
 21
196.3529842772201
 31
-0.0000000000001122
210
0.0
220
1.0
230
2.220446049250313E-16
  0
LINE
  5
10C37
  8
CONTOUR
 10
321.0116381527314
 20
219.9529842772201
 30
-0.0000000000001069
 11
321.0116381527314
 21
189.4529842772201
 31
-0.0000000000000068
210
0.0
220
1.0
230
2.220446049250313E-16
  0
LINE
  5
10C38
  8
CONTOUR
 10
353.5116381527314
 20
205.7029842772198
 30
-0.0000000000001101
 11
353.5116381527314
 21
207.4750430592565
 31
-0.0000000000001097
210
0.0
220
1.0
230
2.220446049250313E-16
  0
LINE
  5
10C39
  8
CONTOUR
 10
353.5116381527314
 20
207.4750430592565
 30
-0.0000000000001097
 11
353.5116381527314
 21
210.0731192706094
 31
-0.0000000000001091
210
0.0
220
1.0
230
2.220446049250313E-16
  0
LINE
  5
10C3A
  8
CONTOUR
 10
353.5116381527314
 20
207.4750430592565
 30
-0.0000000000001097
 11
352.7033306381181
 21
207.4750430592565
 31
-0.0000000000001097
210
0.0
220
1.0
230
2.220446049250313E-16
  0
LINE
  5
10C3B
  8
CONTOUR
 10
353.5116381527314
 20
210.0731192706096
 30
-0.0000000000001091
 11
353.5116381527314
 21
213.895178052645
 31
-0.0000000000001083
210
0.0
220
1.0
230
2.220446049250313E-16
  0
LINE
  5
10C3C
  8
CONTOUR
 10
353.5116381527314
 20
210.0731192706096
 30
-0.0000000000001091
 11
351.5182432434663
 21
210.0731192706096
 31
-0.0000000000001091
210
0.0
220
1.0
230
2.220446049250313E-16
  0
LINE
  5
10C3D
  8
CONTOUR
 10
353.5116381527314
 20
213.8951780526448
 30
-0.0000000000001083
 11
353.5116381527314
 21
214.2971018412915
 31
-0.0000000000001082
210
0.0
220
1.0
230
2.220446049250313E-16
  0
LINE
  5
10C3E
  8
CONTOUR
 10
353.5116381527314
 20
213.8951780526448
 30
-0.0000000000001083
 11
349.7748480095552
 21
213.8951780526448
 31
-0.0000000000001083
210
0.0
220
1.0
230
2.220446049250313E-16
  0
LINE
  5
10C3F
  8
CONTOUR
 10
358.551987889573
 20
194.6529867772212
 30
-0.0000000000001125
 11
365.5522879648261
 21
194.6529867772211
 31
-0.0000000000001125
210
0.0
220
1.0
230
2.220446049250313E-16
  0
LINE
  5
10C40
  8
CONTOUR
 10
355.8518646993825
 20
212.6529817772205
 30
-0.0000000000001085
 11
355.8518646993825
 21
212.0401073619049
 31
-0.0000000000001087
210
0.0
220
1.0
230
2.220446049250313E-16
  0
LINE
  5
10C41
  8
CONTOUR
 10
355.8518646993825
 20
212.6529817772205
 30
-0.0000000000001085
 11
365.5522879648261
 21
212.6529817772205
 31
-0.0000000000001085
210
0.0
220
1.0
230
2.220446049250313E-16
  0
LINE
  5
10C42
  8
CONTOUR
 10
355.8518646993825
 20
212.0401073619048
 30
-0.0000000000001087
 11
355.8518646993825
 21
204.2658586925361
 31
-0.0000000000001104
210
0.0
220
1.0
230
2.220446049250313E-16
  0
LINE
  5
10C43
  8
CONTOUR
 10
355.8518646993825
 20
212.0401073619048
 30
-0.0000000000001087
 11
365.5522879648261
 21
212.0401073619048
 31
-0.0000000000001087
210
0.0
220
1.0
230
2.220446049250313E-16
  0
LINE
  5
10C44
  8
CONTOUR
 10
355.8518646993825
 20
204.2658586925361
 30
-0.0000000000001104
 11
355.8518646993825
 21
203.0401098619048
 31
-0.0000000000001107
210
0.0
220
1.0
230
2.220446049250313E-16
  0
LINE
  5
10C45
  8
CONTOUR
 10
355.8518646993825
 20
204.2658586925361
 30
-0.0000000000001104
 11
365.5522879648261
 21
204.2658586925361
 31
-0.0000000000001104
210
0.0
220
1.0
230
2.220446049250313E-16
  0
LINE
  5
10C46
  8
CONTOUR
 10
358.2724311387274
 20
195.2658611925368
 30
-0.0000000000001124
 11
365.5522879648261
 21
195.2658611925368
 31
-0.0000000000001124
210
0.0
220
1.0
230
2.220446049250313E-16
  0
LINE
  5
10C47
  8
CONTOUR
 10
355.8518646993825
 20
203.0401098619048
 30
-0.0000000000001107
 11
355.8518646993825
 21
200.5724876172538
 31
-0.0000000000001112
210
0.0
220
1.0
230
2.220446049250313E-16
  0
LINE
  5
10C48
  8
CONTOUR
 10
355.8518646993825
 20
203.0401098619048
 30
-0.0000000000001107
 11
365.5522879648261
 21
203.0401098619047
 31
-0.0000000000001107
210
0.0
220
1.0
230
2.220446049250313E-16
  0
LINE
  5
10C49
  8
CONTOUR
 10
365.5522879648261
 20
194.959423984879
 30
-0.0000000000001125
 11
365.5522879648261
 21
195.2658611925368
 31
-0.0000000000001124
210
0.0
220
1.0
230
2.220446049250313E-16
  0
LINE
  5
10C4A
  8
CONTOUR
 10
365.5522879648261
 20
195.2658611925366
 30
-0.0000000000001124
 11
365.5522879648261
 21
195.3022681516418
 31
-0.0000000000001124
210
0.0
220
1.0
230
2.220446049250313E-16
  0
LINE
  5
10C4B
  8
CONTOUR
 10
372.4672446993827
 20
203.6529842772204
 30
-0.0000000000001105
 11
372.4672446993827
 21
198.4606780272201
 31
-0.0000000000001117
210
0.0
220
1.0
230
2.220446049250313E-16
  0
LINE
  5
10C4C
  8
CONTOUR
 10
372.4672446993827
 20
208.8452905272208
 30
-0.0000000000001094
 11
372.4672446993827
 21
203.6529842772204
 31
-0.0000000000001105
210
0.0
220
1.0
230
2.220446049250313E-16
  0
POLYLINE
  5
10C4D
  8
CONTOUR
 66
     1
 10
0.0
 20
0.0
 30
-0.0000000000001104
  0
VERTEX
  5
11F65
  8
CONTOUR
 10
365.5522879648261
 20
204.3022656516421
 30
-0.0000000000001104
  0
VERTEX
  5
11F66
  8
CONTOUR
 10
365.8047953334911
 20
204.828556997667
 30
-0.0000000000001104
  0
VERTEX
  5
11F67
  8
CONTOUR
 10
366.0182474397421
 20
205.3360455801387
 30
-0.0000000000001104
  0
VERTEX
  5
11F68
  8
CONTOUR
 10
366.1950859682278
 20
205.8280215929092
 30
-0.0000000000001104
  0
VERTEX
  5
11F69
  8
CONTOUR
 10
366.3372717016991
 20
206.3074779255611
 30
-0.0000000000001104
  0
VERTEX
  5
11F6A
  8
CONTOUR
 10
366.446340918312
 20
206.7771756167651
 30
-0.0000000000001104
  0
VERTEX
  5
11F6B
  8
CONTOUR
 10
366.5234480041731
 20
207.2397000008579
 30
-0.0000000000001104
  0
VERTEX
  5
11F6C
  8
CONTOUR
 10
366.5693965485425
 20
207.6975100592822
 30
-0.0000000000001104
  0
VERTEX
  5
11F6D
  8
CONTOUR
 10
366.584660515744
 20
208.152983027221
 30
-0.0000000000001104
  0
VERTEX
  5
11F6E
  8
CONTOUR
 10
366.5693965485424
 20
208.6084559951597
 30
-0.0000000000001104
  0
VERTEX
  5
11F6F
  8
CONTOUR
 10
366.523448004173
 20
209.066266053584
 30
-0.0000000000001104
  0
VERTEX
  5
11F70
  8
CONTOUR
 10
366.446340918312
 20
209.5287904376768
 30
-0.0000000000001104
  0
VERTEX
  5
11F71
  8
CONTOUR
 10
366.3372717016991
 20
209.9984881288808
 30
-0.0000000000001104
  0
VERTEX
  5
11F72
  8
CONTOUR
 10
366.1950859682278
 20
210.4779444615327
 30
-0.0000000000001104
  0
VERTEX
  5
11F73
  8
CONTOUR
 10
366.0182474397421
 20
210.9699204743032
 30
-0.0000000000001104
  0
VERTEX
  5
11F74
  8
CONTOUR
 10
365.8047953334911
 20
211.4774090567749
 30
-0.0000000000001104
  0
VERTEX
  5
11F75
  8
CONTOUR
 10
365.5522879648261
 20
212.0037004027998
 30
-0.0000000000001104
  0
SEQEND
  5
1201B
  8
CONTOUR
  0
POLYLINE
  5
10C4E
  8
CONTOUR
 10
0.0
 20
0.0
 30
0.0
 66
     1
 70
     8
  0
VERTEX
  5
11F76
  8
CONTOUR
 10
365.5522879648261
 20
212.6529817772205
 30
-0.0000000000001085
 70
    32
  0
VERTEX
  5
11F77
  8
CONTOUR
 10
365.6835968196798
 20
212.6529817772205
 30
-0.0000000000001085
 70
    32
  0
VERTEX
  5
11F78
  8
CONTOUR
 10
365.8047953334911
 20
212.6529817772205
 30
-0.0000000000001085
 70
    32
  0
VERTEX
  5
11F79
  8
CONTOUR
 10
365.9162386504624
 20
212.6529817772205
 30
-0.0000000000001085
 70
    32
  0
VERTEX
  5
11F7A
  8
CONTOUR
 10
366.018247439742
 20
212.6529817772205
 30
-0.0000000000001085
 70
    32
  0
VERTEX
  5
11F7B
  8
CONTOUR
 10
366.1111103159645
 20
212.6529817772205
 30
-0.0000000000001085
 70
    32
  0
VERTEX
  5
11F7C
  8
CONTOUR
 10
366.1950859682277
 20
212.6529817772205
 30
-0.0000000000001085
 70
    32
  0
VERTEX
  5
11F7D
  8
CONTOUR
 10
366.27040502796
 20
212.6529817772205
 30
-0.0000000000001085
 70
    32
  0
VERTEX
  5
11F7E
  8
CONTOUR
 10
366.3372717016991
 20
212.6529817772205
 30
-0.0000000000001085
 70
    32
  0
VERTEX
  5
11F7F
  8
CONTOUR
 10
366.3958651909942
 20
212.6529817772205
 30
-0.0000000000001085
 70
    32
  0
VERTEX
  5
11F80
  8
CONTOUR
 10
366.4463409183121
 20
212.6529817772205
 30
-0.0000000000001085
 70
    32
  0
VERTEX
  5
11F81
  8
CONTOUR
 10
366.4888315749233
 20
212.6529817772205
 30
-0.0000000000001085
 70
    32
  0
VERTEX
  5
11F82
  8
CONTOUR
 10
366.523448004173
 20
212.6529817772205
 30
-0.0000000000001085
 70
    32
  0
VERTEX
  5
11F83
  8
CONTOUR
 10
366.5502799312546
 20
212.6529817772206
 30
-0.0000000000001085
 70
    32
  0
VERTEX
  5
11F84
  8
CONTOUR
 10
366.5693965485425
 20
212.6529817772206
 30
-0.0000000000001085
 70
    32
  0
VERTEX
  5
11F85
  8
CONTOUR
 10
366.5808469636627
 20
212.6529817772205
 30
-0.0000000000001085
 70
    32
  0
VERTEX
  5
11F86
  8
CONTOUR
 10
366.584660515744
 20
212.6529817772205
 30
-0.0000000000001085
 70
    32
  0
SEQEND
  5
1201C
  8
CONTOUR
  0
POLYLINE
  5
10C4F
  8
CONTOUR
 10
0.0
 20
0.0
 30
0.0
 66
     1
 70
     8
  0
VERTEX
  5
11F87
  8
CONTOUR
 10
366.584660515744
 20
194.6529867772212
 30
-0.0000000000001125
 70
    32
  0
VERTEX
  5
11F88
  8
CONTOUR
 10
366.5808469636627
 20
194.6529867772212
 30
-0.0000000000001125
 70
    32
  0
VERTEX
  5
11F89
  8
CONTOUR
 10
366.5693965485425
 20
194.6529867772212
 30
-0.0000000000001125
 70
    32
  0
VERTEX
  5
11F8A
  8
CONTOUR
 10
366.5502799312546
 20
194.6529867772212
 30
-0.0000000000001125
 70
    32
  0
VERTEX
  5
11F8B
  8
CONTOUR
 10
366.523448004173
 20
194.6529867772212
 30
-0.0000000000001125
 70
    32
  0
VERTEX
  5
11F8C
  8
CONTOUR
 10
366.4888315749233
 20
194.6529867772212
 30
-0.0000000000001125
 70
    32
  0
VERTEX
  5
11F8D
  8
CONTOUR
 10
366.4463409183121
 20
194.6529867772212
 30
-0.0000000000001125
 70
    32
  0
VERTEX
  5
11F8E
  8
CONTOUR
 10
366.3958651909942
 20
194.6529867772212
 30
-0.0000000000001125
 70
    32
  0
VERTEX
  5
11F8F
  8
CONTOUR
 10
366.3372717016991
 20
194.6529867772212
 30
-0.0000000000001125
 70
    32
  0
VERTEX
  5
11F90
  8
CONTOUR
 10
366.2704050279601
 20
194.6529867772212
 30
-0.0000000000001125
 70
    32
  0
VERTEX
  5
11F91
  8
CONTOUR
 10
366.1950859682278
 20
194.6529867772212
 30
-0.0000000000001125
 70
    32
  0
VERTEX
  5
11F92
  8
CONTOUR
 10
366.1111103159644
 20
194.6529867772212
 30
-0.0000000000001125
 70
    32
  0
VERTEX
  5
11F93
  8
CONTOUR
 10
366.0182474397421
 20
194.6529867772212
 30
-0.0000000000001125
 70
    32
  0
VERTEX
  5
11F94
  8
CONTOUR
 10
365.9162386504624
 20
194.6529867772212
 30
-0.0000000000001125
 70
    32
  0
VERTEX
  5
11F95
  8
CONTOUR
 10
365.8047953334911
 20
194.6529867772212
 30
-0.0000000000001125
 70
    32
  0
VERTEX
  5
11F96
  8
CONTOUR
 10
365.6835968196799
 20
194.6529867772212
 30
-0.0000000000001125
 70
    32
  0
VERTEX
  5
11F97
  8
CONTOUR
 10
365.5522879648261
 20
194.6529867772212
 30
-0.0000000000001125
 70
    32
  0
SEQEND
  5
1201D
  8
CONTOUR
  0
POLYLINE
  5
10C50
  8
CONTOUR
 66
     1
 10
0.0
 20
0.0
 30
-0.0000000000001124
  0
VERTEX
  5
11F98
  8
CONTOUR
 10
365.5522879648261
 20
195.302268151642
 30
-0.0000000000001124
  0
VERTEX
  5
11F99
  8
CONTOUR
 10
365.8047953334911
 20
195.8285594976668
 30
-0.0000000000001124
  0
VERTEX
  5
11F9A
  8
CONTOUR
 10
366.0182474397421
 20
196.3360480801385
 30
-0.0000000000001124
  0
VERTEX
  5
11F9B
  8
CONTOUR
 10
366.1950859682277
 20
196.828024092909
 30
-0.0000000000001124
  0
VERTEX
  5
11F9C
  8
CONTOUR
 10
366.3372717016991
 20
197.3074804255609
 30
-0.0000000000001124
  0
VERTEX
  5
11F9D
  8
CONTOUR
 10
366.446340918312
 20
197.7771781167649
 30
-0.0000000000001124
  0
VERTEX
  5
11F9E
  8
CONTOUR
 10
366.523448004173
 20
198.2397025008578
 30
-0.0000000000001124
  0
VERTEX
  5
11F9F
  8
CONTOUR
 10
366.5693965485425
 20
198.697512559282
 30
-0.0000000000001124
  0
VERTEX
  5
11FA0
  8
CONTOUR
 10
366.584660515744
 20
199.1529855272208
 30
-0.0000000000001124
  0
VERTEX
  5
11FA1
  8
CONTOUR
 10
366.5693965485424
 20
199.6084584951596
 30
-0.0000000000001124
  0
VERTEX
  5
11FA2
  8
CONTOUR
 10
366.523448004173
 20
200.0662685535839
 30
-0.0000000000001124
  0
VERTEX
  5
11FA3
  8
CONTOUR
 10
366.446340918312
 20
200.5287929376767
 30
-0.0000000000001124
  0
VERTEX
  5
11FA4
  8
CONTOUR
 10
366.337271701699
 20
200.9984906288807
 30
-0.0000000000001124
  0
VERTEX
  5
11FA5
  8
CONTOUR
 10
366.1950859682278
 20
201.4779469615326
 30
-0.0000000000001124
  0
VERTEX
  5
11FA6
  8
CONTOUR
 10
366.0182474397421
 20
201.9699229743032
 30
-0.0000000000001124
  0
VERTEX
  5
11FA7
  8
CONTOUR
 10
365.8047953334911
 20
202.4774115567749
 30
-0.0000000000001124
  0
VERTEX
  5
11FA8
  8
CONTOUR
 10
365.5522879648261
 20
203.0037029027997
 30
-0.0000000000001124
  0
SEQEND
  5
1201E
  8
CONTOUR
  0
LINE
  5
10C51
  8
CONTOUR
 10
366.928784699383
 20
203.6529842772204
 30
-0.0000000000001105
 11
366.928784699383
 21
194.9991405272201
 31
-0.0000000000001125
210
0.0
220
1.0
230
2.220446049250313E-16
  0
LINE
  5
10C52
  8
CONTOUR
 10
366.928784699383
 20
212.3068280272207
 30
-0.0000000000001086
 11
366.928784699383
 21
203.6529842772204
 31
-0.0000000000001105
210
0.0
220
1.0
230
2.220446049250313E-16
  0
LINE
  5
10C53
  8
CONTOUR
 10
365.5522879648261
 20
203.0401098619048
 30
-0.0000000000001107
 11
365.5522879648261
 21
203.6529842772204
 31
-0.0000000000001105
210
0.0
220
1.0
230
2.220446049250313E-16
  0
LINE
  5
10C54
  8
CONTOUR
 10
365.5522879648261
 20
203.0037029027996
 30
-0.0000000000001107
 11
365.5522879648261
 21
203.0401098619048
 31
-0.0000000000001107
210
0.0
220
1.0
230
2.220446049250313E-16
  0
LINE
  5
10C55
  8
CONTOUR
 10
365.5522879648261
 20
194.6529867772211
 30
-0.0000000000001125
 11
365.5522879648261
 21
194.959423984879
 31
-0.0000000000001125
210
0.0
220
1.0
230
2.220446049250313E-16
  0
LINE
  5
10C56
  8
CONTOUR
 10
365.5522879648261
 20
212.0401073619055
 30
-0.0000000000001087
 11
365.5522879648261
 21
212.3465445695636
 31
-0.0000000000001086
210
0.0
220
1.0
230
2.220446049250313E-16
  0
LINE
  5
10C57
  8
CONTOUR
 10
365.5522879648261
 20
212.0037004027997
 30
-0.0000000000001087
 11
365.5522879648261
 21
212.0401073619049
 31
-0.0000000000001087
210
0.0
220
1.0
230
2.220446049250313E-16
  0
LINE
  5
10C58
  8
CONTOUR
 10
365.5522879648261
 20
204.2658586925361
 30
-0.0000000000001104
 11
365.5522879648261
 21
204.302265651642
 31
-0.0000000000001104
210
0.0
220
1.0
230
2.220446049250313E-16
  0
LINE
  5
10C59
  8
CONTOUR
 10
365.5522879648261
 20
203.6529842772204
 30
-0.0000000000001105
 11
365.5522879648261
 21
204.2658586925361
 31
-0.0000000000001104
210
0.0
220
1.0
230
2.220446049250313E-16
  0
LINE
  5
10C5A
  8
CONTOUR
 10
365.5522879648261
 20
212.3465445695636
 30
-0.0000000000001086
 11
365.5522879648261
 21
212.6529817772212
 31
-0.0000000000001085
210
0.0
220
1.0
230
2.220446049250313E-16
  0
LINE
  5
10C5B
  8
CONTOUR
 10
99.0116381527314
 20
219.9529842772203
 30
-0.0000000000001069
 11
73.0116381527314
 21
219.9529842772203
 31
-0.0000000000001069
210
0.0
220
1.0
230
2.220446049250313E-16
  0
LINE
  5
10C5C
  8
CONTOUR
 10
321.0116381527314
 20
218.0529842772199
 30
-0.0000000000001073
 11
214.5887598716868
 21
218.0529842772199
 31
-0.0000000000001073
210
0.0
220
1.0
230
2.220446049250313E-16
  0
LINE
  5
10C5D
  8
CONTOUR
 10
321.0116381527314
 20
219.9529842772201
 30
-0.0000000000001069
 11
347.0116381527314
 21
219.9529842772201
 31
-0.0000000000001069
210
0.0
220
1.0
230
2.220446049250313E-16
  0
LINE
  5
10C5E
  8
CONTOUR
 10
353.5116381527314
 20
214.2971018412915
 30
-0.0000000000001082
 11
349.5915143515758
 21
214.2971018412915
 31
-0.0000000000001082
210
0.0
220
1.0
230
2.220446049250313E-16
  0
LINE
  5
10C5F
  8
CONTOUR
 10
355.8518646993825
 20
211.5029842772204
 30
-0.0000000000001088
 11
353.5116381527314
 21
211.5029842772204
 31
-0.0000000000001088
210
0.0
220
1.0
230
2.220446049250313E-16
  0
LINE
  5
10C60
  8
CONTOUR
 10
366.928784699383
 20
194.9991405272201
 30
-0.0000000000001125
 11
369.0057071993824
 21
194.9991405272201
 31
-0.0000000000001125
210
0.0
220
1.0
230
2.220446049250313E-16
  0
LINE
  5
10C61
  8
CONTOUR
 10
366.928784699383
 20
212.3068280272207
 30
-0.0000000000001086
 11
369.0057071993824
 21
212.3068280272207
 31
-0.0000000000001086
210
0.0
220
1.0
230
2.220446049250313E-16
  0
ARC
  5
10C62
  8
CONTOUR
 10
-369.0057071993824
 20
208.8452905272208
 30
0.0000000000001558
 40
3.461537500000024
 50
90.0
 51
180.0
210
0.0
220
2.220446049250313E-16
230
-1.0
  0
ARC
  5
10C63
  8
CONTOUR
 10
-369.0057071993824
 20
198.4606780272201
 30
0.0000000000001558
 40
3.461537500000024
 50
180.0
 51
270.0
210
0.0
220
2.220446049250313E-16
230
-1.0
  0
LINE
  5
10C64
  8
CONTOUR
 10
366.928784699383
 20
212.3068280272204
 30
-0.0000000000001086
 11
366.584660515744
 21
212.6529817772203
 31
-0.0000000000001085
210
0.0
220
1.0
230
2.220446049250313E-16
  0
LINE
  5
10C65
  8
CONTOUR
 10
366.928784699383
 20
194.9991405272204
 30
-0.0000000000001125
 11
366.584660515744
 21
194.652986777221
 31
-0.0000000000001125
210
0.0
220
1.0
230
2.220446049250313E-16
  0
LINE
  5
10C66
  8
CONTOUR
 10
372.4672446993827
 20
305.2325021120614
 30
0.0
 11
397.3514770344054
 21
305.2325021120614
 31
0.0
  0
LINE
  5
10C67
  8
CONTOUR
 10
399.3514770344054
 20
305.2325021120614
 30
0.0
 11
422.4672446993827
 21
305.2325021120614
 31
0.0
  0
LINE
  5
10C68
  8
CONTOUR
 10
422.4672446993827
 20
298.6325021120613
 30
0.0
 11
397.58301236436
 21
298.6325021120613
 31
0.0
  0
LINE
  5
10C69
  8
CONTOUR
 10
395.58301236436
 20
298.6325021120613
 30
0.0
 11
372.4672446993827
 21
298.6325021120613
 31
0.0
  0
LINE
  5
10C6A
  8
CONTOUR
 10
465.4672446993827
 20
311.3825021120614
 30
0.0
 11
465.4672446993827
 21
309.0825021120613
 31
0.0
  0
DIMENSION
  5
10C6B
  8
MARK
  2
*D22
 10
23.68096274201071
 20
288.4325021120605
 30
0.0
 11
17.78096274201079
 21
301.9325021120605
 31
0.0
 70
    32
 13
60.01163815273139
 23
315.4325021120605
 33
0.0
 14
60.01163815273139
 24
288.4325021120604
 34
0.0
 50
90.0
  0
DIMENSION
  5
10C6E
  8
MARK
  2
*D23
 10
62.01163815273139
 20
337.8351165926031
 30
0.0
 11
43.27830481939806
 21
343.7351165926031
 31
0.0
 70
    32
 13
68.0116381527314
 23
315.4325021120605
 33
0.0
 14
62.01163815273139
 24
315.4325021120605
 34
0.0
  0
DIMENSION
  5
10C71
  8
MARK
  2
*D24
 10
44.70138386898726
 20
286.1825021120603
 30
0.0
 11
38.80138386898734
 21
262.7825021120603
 31
0.0
 70
    32
 13
64.2616381527314
 23
290.6825021120602
 33
0.0
 14
64.2616381527314
 24
286.1825021120602
 34
0.0
 50
90.0
  0
DIMENSION
  5
10C74
  8
MARK
  2
*D25
 10
355.0116381527314
 20
356.9901424779439
 30
0.0
 11
210.0116381527314
 21
362.8901424779439
 31
0.0
 70
    32
  1
1160
 13
65.0116381527314
 23
319.6825021120603
 33
0.0
 14
355.0116381527314
 24
319.6825021120603
 34
0.0
  0
DIMENSION
  5
10C77
  8
MARK
  2
*D26
 10
60.01163815273139
 20
166.4394419615591
 30
0.0
 11
79.5116381527314
 21
172.3394419615591
 31
0.0
 70
    32
 13
99.0116381527314
 23
189.4529842772201
 33
-0.0000000000001137
 14
60.01163815273139
 24
189.4529842772201
 34
-0.0000000000001137
  0
DIMENSION
  5
10C7A
  8
MARK
  2
*D27
 10
321.0116381527314
 20
166.4394419615591
 30
0.0
 11
210.0116381527314
 21
172.3394419615591
 31
0.0
 70
    32
  1
1092
 13
99.0116381527314
 23
189.4529842772201
 33
-0.0000000000001137
 14
321.0116381527314
 24
189.45298427722
 34
-0.0000000000000068
  0
DIMENSION
  5
10C7D
  8
MARK
  2
*D28
 10
360.0116381527314
 20
166.4394419615591
 30
0.0
 11
340.5116381527314
 21
172.3394419615591
 31
0.0
 70
    32
 13
321.0116381527314
 23
189.45298427722
 33
-0.0000000000001137
 14
360.0116381527314
 24
189.4529842772201
 34
-0.0000000000002206
  0
DIMENSION
  5
10C80
  8
MARK
  2
*D29
 10
60.01163815273139
 20
143.5610745502573
 30
0.0
 11
210.0116381527314
 21
149.4610745502573
 31
0.0
 70
    32
  1
1170
 13
360.0116381527314
 23
189.4529842772201
 33
-0.0000000000001137
 14
60.01163815273139
 24
189.4529842772201
 34
-0.0000000000001137
  0
DIMENSION
  5
10C83
  8
MARK
  2
*D30
 10
23.68096274201071
 20
219.9529842772204
 30
0.0
 11
17.78096274201077
 21
204.7029842772202
 31
0.0
 70
    32
 13
60.01163815273139
 23
189.4529842772201
 33
-0.0000000000001137
 14
73.0116381527314
 24
219.9529842772203
 34
-0.0000000000001069
 50
90.0
  0
DIMENSION
  5
10C86
  8
MARK
  2
*D31
 10
459.5353387136038
 20
191.4529842772201
 30
0.0
 11
459.5353387136038
 21
190.4529842772199
 31
0.0
 70
   160
 13
477.7357387293487
 23
189.45298427722
 33
-0.0000000000001137
 14
477.7357387293496
 24
191.45298427722
 34
-0.0000000000001137
 50
90.0
  0
DIMENSION
  5
10C89
  8
MARK
  2
*D32
 10
518.1357387293501
 20
166.4394419615591
 30
0.0
 11
497.9357387293494
 21
172.3394419615591
 31
0.0
 70
    32
 13
477.7357387293487
 23
189.45298427722
 33
-0.0000000000001137
 14
518.1357387293501
 24
189.45298427722
 34
-0.0000000000001137
  0
DIMENSION
  5
10C8C
  8
MARK
  2
*D33
 10
543.3530094367864
 20
203.6529842772204
 30
0.0
 11
537.4530094367863
 21
229.3863176105536
 31
0.0
 70
    32
 13
518.1357387293501
 23
189.45298427722
 33
-0.0000000000001137
 14
509.9741974793496
 24
203.6529842772203
 34
-0.0000000000001137
 50
90.0
  0
LINE
  5
10C8F
  8
CONTOUR
 10
422.4672446993827
 20
305.2325021120614
 30
0.0
 11
422.4672446993827
 21
298.6325021120613
 31
0.0
  0
LINE
  5
10C90
  8
SECTION
 10
399.8873754192673
 20
307.2325021120614
 30
0.0
 11
397.0471139794972
 21
296.6325021120613
 31
0.0
  0
LINE
  5
10C91
  8
SECTION
 10
397.8873754192673
 20
307.2325021120614
 30
0.0
 11
395.0471139794972
 21
296.6325021120613
 31
0.0
  0
LINE
  5
10C92
  8
CONTOUR
 10
422.4672446993827
 20
304.4825021120613
 30
0.0
 11
444.0172446993829
 21
304.4825021120613
 31
0.0
  0
LINE
  5
10C93
  8
CONTOUR
 10
422.4672446993827
 20
302.1825021120613
 30
0.0
 11
444.0172446993829
 21
302.1825021120613
 31
0.0
  0
LINE
  5
10C94
  8
CONTOUR
 10
372.4672446993827
 20
206.9529842772214
 30
-0.0000000000001105
 11
397.3514770344054
 21
206.9529842772214
 31
-0.0000000000001105
  0
LINE
  5
10C95
  8
CONTOUR
 10
395.58301236436
 20
200.3529842772213
 30
-0.0000000000001105
 11
372.4672446993827
 21
200.3529842772213
 31
-0.0000000000001105
  0
LINE
  5
10C96
  8
SECTION
 10
397.8873754192673
 20
208.9529842772214
 30
-0.0000000000001105
 11
395.0471139794972
 21
198.3529842772213
 31
-0.0000000000001105
  0
ARC
  5
10C97
  8
CONTOUR
 10
444.0172446993829
 20
306.7825021120613
 30
0.0
 40
2.3
 50
270.0
 51
0.0
  0
ARC
  5
10C98
  8
CONTOUR
 10
444.0172446993829
 20
306.7825021120613
 30
0.0
 40
4.6
 50
270.0
 51
0.0
  0
ARC
  5
10C99
  8
CONTOUR
 10
450.9172446993825
 20
306.7825021120613
 30
0.0
 40
4.6
 50
90.0
 51
180.0
  0
ARC
  5
10C9A
  8
CONTOUR
 10
450.9172446993825
 20
306.7825021120613
 30
0.0
 40
2.3
 50
90.0
 51
180.0
  0
LINE
  5
10C9B
  8
CONTOUR
 10
450.9172446993825
 20
311.3825021120613
 30
0.0
 11
465.4672446993827
 21
311.3825021120613
 31
0.0
  0
LINE
  5
10C9C
  8
CONTOUR
 10
450.9172446993825
 20
309.0825021120613
 30
0.0
 11
465.4672446993827
 21
309.0825021120613
 31
0.0
  0
LINE
  5
10C9D
  8
CONTOUR
 10
465.4672446993827
 20
311.0325021120614
 30
0.0
 11
472.4672446993827
 21
311.0325021120614
 31
0.0
  0
LINE
  5
10C9E
  8
CONTOUR
 10
465.4672446993827
 20
309.4325021120613
 30
0.0
 11
472.4672446993827
 21
309.4325021120613
 31
0.0
  0
LINE
  5
10C9F
  8
CONTOUR
 10
465.4672446993827
 20
310.7658354453947
 30
0.0
 11
472.4672446993827
 21
310.7658354453947
 31
0.0
  0
LINE
  5
10CA0
  8
CONTOUR
 10
465.4672446993827
 20
310.499168778728
 30
0.0
 11
472.4672446993827
 21
310.499168778728
 31
0.0
  0
LINE
  5
10CA1
  8
CONTOUR
 10
465.4672446993827
 20
310.2325021120614
 30
0.0
 11
472.4672446993827
 21
310.2325021120614
 31
0.0
  0
LINE
  5
10CA2
  8
CONTOUR
 10
465.4672446993827
 20
309.9658354453947
 30
0.0
 11
472.4672446993827
 21
309.9658354453947
 31
0.0
  0
LINE
  5
10CA3
  8
CONTOUR
 10
465.4672446993827
 20
309.699168778728
 30
0.0
 11
472.4672446993827
 21
309.699168778728
 31
0.0
  0
LINE
  5
10CA4
  8
CONTOUR
 10
465.4672446993827
 20
292.4825021120613
 30
0.0
 11
465.4672446993827
 21
294.7825021120614
 31
0.0
  0
LINE
  5
10CA5
  8
CONTOUR
 10
422.4672446993827
 20
299.3825021120614
 30
0.0
 11
444.0172446993829
 21
299.3825021120614
 31
0.0
  0
LINE
  5
10CA6
  8
CONTOUR
 10
422.4672446993827
 20
301.6825021120613
 30
0.0
 11
444.0172446993829
 21
301.6825021120613
 31
0.0
  0
ARC
  5
10CA7
  8
CONTOUR
 10
444.0172446993829
 20
297.0825021120614
 30
0.0
 40
2.3
 50
0.0
 51
90.0
  0
ARC
  5
10CA8
  8
CONTOUR
 10
444.0172446993829
 20
297.0825021120614
 30
0.0
 40
4.6
 50
0.0
 51
90.0
  0
ARC
  5
10CA9
  8
CONTOUR
 10
450.9172446993825
 20
297.0825021120614
 30
0.0
 40
4.6
 50
180.0
 51
270.0
  0
ARC
  5
10CAA
  8
CONTOUR
 10
450.9172446993825
 20
297.0825021120614
 30
0.0
 40
2.3
 50
180.0
 51
270.0
  0
LINE
  5
10CAB
  8
CONTOUR
 10
450.9172446993825
 20
292.4825021120614
 30
0.0
 11
465.4672446993827
 21
292.4825021120614
 31
0.0
  0
LINE
  5
10CAC
  8
CONTOUR
 10
450.9172446993825
 20
294.7825021120614
 30
0.0
 11
465.4672446993827
 21
294.7825021120614
 31
0.0
  0
LINE
  5
10CAD
  8
CONTOUR
 10
465.4672446993827
 20
292.8325021120613
 30
0.0
 11
472.4672446993827
 21
292.8325021120613
 31
0.0
  0
LINE
  5
10CAE
  8
CONTOUR
 10
465.4672446993827
 20
294.4325021120613
 30
0.0
 11
472.4672446993827
 21
294.4325021120613
 31
0.0
  0
LINE
  5
10CAF
  8
CONTOUR
 10
465.4672446993827
 20
293.099168778728
 30
0.0
 11
472.4672446993827
 21
293.099168778728
 31
0.0
  0
LINE
  5
10CB0
  8
CONTOUR
 10
465.4672446993827
 20
293.3658354453947
 30
0.0
 11
472.4672446993827
 21
293.3658354453947
 31
0.0
  0
LINE
  5
10CB1
  8
CONTOUR
 10
465.4672446993827
 20
293.6325021120613
 30
0.0
 11
472.4672446993827
 21
293.6325021120613
 31
0.0
  0
LINE
  5
10CB2
  8
CONTOUR
 10
465.4672446993827
 20
293.899168778728
 30
0.0
 11
472.4672446993827
 21
293.899168778728
 31
0.0
  0
LINE
  5
10CB3
  8
CONTOUR
 10
465.4672446993827
 20
294.1658354453947
 30
0.0
 11
472.4672446993827
 21
294.1658354453947
 31
0.0
  0
TEXT
  5
10CB4
  8
DIM
  6
CONTINUOUS
 10
116.2084757514231
 20
31.36852943041804
 30
0.0
 40
3.5
  1
2
  0
LINE
  5
10CB5
  8
CENTER
 10
398.4672446993827
 20
203.6529842772213
 30
-0.0000000000001105
 11
63.57655043343311
 21
203.6529842772203
 31
-0.0000000000001137
  0
TEXT
  5
10CB6
  8
0
  6
CONTINUOUS
 10
284.5341102383668
 20
24.71964666933748
 30
0.0
 40
9.999999999999996
  1
林 \U+5F66 旭
 41
0.5
  0
TEXT
  5
10CC0
  8
0
  6
CONTINUOUS
 10
208.1058963013156
 20
45.3294227172381
 30
0.0
 40
8.636363636363637
  1
2025.03.28
 41
0.5
  0
TEXT
  5
10F9C
  8
0
  6
CONTINUOUS
 10
213.2413636310553
 20
24.26210017830935
 30
0.0
 40
9.999999999999995
  1
陳   翎
 41
0.5
  0
LINE
  5
11470
  8
SECTION
 10
216.4510067590832
 20
322.2325021120621
 30
0.0
 11
205.5722695463794
 21
281.6325021120614
 31
0.0
  0
LINE
  5
11471
  8
SECTION
 10
214.4510067590832
 20
322.2325021120621
 30
0.0
 11
203.5722695463794
 21
281.6325021120614
 31
0.0
  0
LINE
  5
11472
  8
SECTION
 10
215.1246582565491
 20
220.0529842772199
 30
-0.0000000000001103
 11
206.8986180489137
 21
189.35298427722
 31
-0.0000000000001103
  0
LINE
  5
11473
  8
SECTION
 10
213.1246582565491
 20
220.0529842772199
 30
-0.0000000000001103
 11
204.8986180489137
 21
189.35298427722
 31
-0.0000000000001103
  0
LINE
  5
11474
  8
CONTOUR
 10
213.9151083742209
 20
320.2325021120621
 30
0.0
 11
99.0116381527314
 21
320.2325021120622
 31
0.0
  0
LINE
  5
11475
  8
CONTOUR
 10
204.1081679312416
 20
283.6325021120614
 30
0.0
 11
99.0116381527314
 21
283.6325021120614
 31
0.0
  0
LINE
  5
11476
  8
CONTOUR
 10
205.4345164337759
 20
191.35298427722
 30
-0.0000000000001133
 11
99.0116381527314
 21
191.3529842772199
 31
-0.0000000000001133
210
0.0
220
1.0
230
2.220446049250313E-16
  0
LINE
  5
11477
  8
CONTOUR
 10
212.5887598716868
 20
218.0529842772199
 30
-0.0000000000001073
 11
99.0116381527314
 21
218.0529842772199
 31
-0.0000000000001073
210
0.0
220
1.0
230
2.220446049250313E-16
  0
ENDSEC
  0
EOF
